找回密码

蓝光电影网

查看: 360|回复: 2

沉睡魔咒2 Maleficent.Mistress.of.Evil.2019.1080p.3D.BluRay.Half-SBS.x264.TrueHD.7.1.Atmos-FGT 19.29GB

[复制链接]

 成长值: 26155

发表于 2020-2-14 18:57:11 | 显示全部楼层 |阅读模式
沉睡魔咒2 Maleficent.Mistress.of.Evil.2019.1080p.3D.BluRay.Half-SBS.x264.TrueHD.7.1.Atmos-FGT 19.29GB-1.png

译  名 沉睡魔咒2 / Maleficent 2 / 沉睡魔咒2:恶魔夫人 / 玛琳菲森2 / 黑魔后2(港) / 黑魔女2(台)
片  名 Maleficent: Mistress of Evil
年  代 2019
产  地 美国 / 英国
类  别 奇幻 / 冒险
语  言 英语
上映日期 2019-10-18(美国/中国大陆)
IMDb评分  6.7/10 from 51919 users
IMDb链接  https://www.imdb.com/title/tt4777008
豆瓣评分 6.1/10 from 100094 users
豆瓣链接 https://movie.douban.com/subject/26426056/
片  长 119分钟
导  演 乔阿吉姆·罗恩尼 Joachim R?nning
编  剧 迈卡·费兹曼-布卢 Micah Fitzerman-Blue / 诺亚·哈普斯特 Noah Harpster / 琳达·伍尔芙顿 Linda Woolverton
主  演 安吉丽娜·朱莉 Angelina Jolie
       艾丽·范宁 Elle Fanning
       米歇尔·菲佛 Michelle Pfeiffer
       萨姆·赖利 Sam Riley
       哈里斯·迪金森 Harris Dickinson
       艾德·斯克林 Ed Skrein
       切瓦特·埃加福特 Chiwetel Ejiofor
       朱诺·坦普尔 Juno Temple
       艾美达·斯丹顿 Imelda Staunton
       卡·亚历山大 Kae Alexander
       莱丝利·曼维尔 Lesley Manville
       弗莱迪·怀斯 Freddie Wise
       詹·穆瑞 Jenn Murray
       石原贵雅 Miyavi
       大卫·吉雅西 David Gyasi
       罗伯特·林德森 Robert Lindsay
       朱迪斯·沙克妮 Judith Shekoni
       伯纳多·桑托斯 Bernardo Santos
       萨克·霍兰 Zak Holland
       巴里·艾尔德 Barry Aird
       耶斯·利奥丹 Jess Liaudin
       拉塞尔·巴洛格 Russell Balogh
       拉亚·坎普贝尔 Rayna Campbell
       斯嘉丽·格兰特 Scarlett Grant
       汤姆·伯宁顿 Tom Bonington
       阿克塞尔·努 Axel Nu
       特蕾莎·马奥尼 Teresa Mahoney
       John Carew


标  签 迪士尼 | 魔幻 | 奇幻 | 童话改编 | 美国 | 2019 | 美 | 女性

简  介  

  《沉睡魔咒》续集将讲述魔女玛琳菲森(朱莉)和将成为女王的爱洛公主(范宁)关系缓和但依旧复杂,但两人要联手对付新的反派,保护森林王国和那里神奇的动物们。

获奖情况  

  第92届奥斯卡金像奖(2020)
  最佳化妆与发型设计(提名)

  第24届美国艺术指导工会奖(2020)
  电影奖 最佳幻想电影艺术指导(提名) 帕特里克·塔特普洛斯

  第22届美国服装设计工会奖(2020)
  科幻/奇幻题材电影最佳服装设计 艾伦·米罗伊尼克

  第7届美国化妆及发型设计工会奖(2020)
  电影类最佳年代戏发型设计(提名)

  第40届伦敦影评人协会奖(2020)
  年度英国/爱尔兰女演员(提名) 莱丝利·曼维尔
  1. Video
  2. ID                                       : 1
  3. Format                                   : AVC
  4. Format/Info                              : Advanced Video Codec
  5. Format profile                           : High@L4
  6. Format settings                          : CABAC / 3 Ref Frames
  7. Format settings, CABAC                   : Yes
  8. Format settings, Reference frames        : 3 frames
  9. Codec ID                                 : V_MPEG4/ISO/AVC
  10. Duration                                 : 1 h 58 min
  11. Bit rate                                 : 15.5 Mb/s
  12. Width                                    : 1 920 pixels
  13. Height                                   : 1 080 pixels
  14. Display aspect ratio                     : 16:9
  15. Frame rate mode                          : Constant
  16. Frame rate                               : 23.976 (24000/1001) FPS
  17. Color space                              : YUV
  18. Chroma subsampling                       : 4:2:0
  19. Bit depth                                : 8 bits
  20. Scan type                                : Progressive
  21. Bits/(Pixel*Frame)                       : 0.312
  22. Stream size                              : 12.7 GiB (66%)
  23. Title                                    : Maleficent.Mistress.of.Evil.2019.1080p.3D.BluRay.Half-SBS.x264.TrueHD.7.1.Atmos-FGT
  24. Writing library                          : x264 core 148
  25. Encoding settings                        : cabac=1 / ref=3 / deblock=1:-1:-1 / analyse=0x3:0 / me=hex / subme=5 / psy=1 / psy_rd=1.00:0.00 / mixed_ref=0 / me_range=16 / chroma_me=1 / trellis=1 / 8x8dct=1 / cqm=0 / deadzone=21,11 / fast_pskip=0 / chroma_qp_offset=0 / threads=24 / lookahead_threads=6 / sliced_threads=0 / nr=0 / decimate=1 / interlaced=0 / bluray_compat=0 / constrained_intra=0 / bframes=2 / b_pyramid=0 / b_adapt=1 / b_bias=0 / direct=1 / weightb=0 / open_gop=0 / weightp=0 / keyint=24 / keyint_min=2 / scenecut=40 / intra_refresh=0 / rc=abr / mbtree=0 / bitrate=15500 / ratetol=1.0 / qcomp=0.60 / qpmin=0 / qpmax=69 / qpstep=4 / ip_ratio=1.40 / pb_ratio=1.30 / aq=1:1.00
  26. Default                                  : Yes
  27. Forced                                   : No
  28. Color range                              : Limited
  29. Color primaries                          : BT.709
  30. Transfer characteristics                 : BT.709
  31. Matrix coefficients                      : BT.709

  32. Audio #1
  33. ID                                       : 2
  34. Format                                   : MLP FBA 16-ch
  35. Format/Info                              : Meridian Lossless Packing FBA with 16-channel presentation
  36. Commercial name                          : Dolby TrueHD with Dolby Atmos
  37. Codec ID                                 : A_TRUEHD
  38. Duration                                 : 1 h 58 min
  39. Bit rate mode                            : Variable
  40. Bit rate                                 : 5 128 kb/s
  41. Maximum bit rate                         : 8 160 kb/s
  42. Channel(s)                               : 8 channels
  43. Channel layout                           : L R C LFE Ls Rs Lb Rb
  44. Sampling rate                            : 48.0 kHz
  45. Frame rate                               : 1 200.000 FPS (40 SPF)
  46. Compression mode                         : Lossless
  47. Stream size                              : 4.26 GiB (22%)
  48. Title                                    : Maleficent.Mistress.of.Evil.2019.1080p.3D.BluRay.Half-SBS.x264.TrueHD.7.1.Atmos-FGT
  49. Language                                 : English
  50. Default                                  : Yes
  51. Forced                                   : No
  52. Number of dynamic objects                : 13
  53. Bed channel count                        : 1 channel
  54. Bed channel configuration                : LFE

  55. Audio #2
  56. ID                                       : 3
  57. Format                                   : AC-3
  58. Format/Info                              : Audio Coding 3
  59. Commercial name                          : Dolby Digital
  60. Codec ID                                 : A_AC3
  61. Duration                                 : 1 h 58 min
  62. Bit rate mode                            : Constant
  63. Bit rate                                 : 640 kb/s
  64. Channel(s)                               : 6 channels
  65. Channel layout                           : L R C LFE Ls Rs
  66. Sampling rate                            : 48.0 kHz
  67. Frame rate                               : 31.250 FPS (1536 SPF)
  68. Bit depth                                : 16 bits
  69. Compression mode                         : Lossy
  70. Stream size                              : 544 MiB (3%)
  71. Title                                    : Maleficent.Mistress.of.Evil.2019.1080p.3D.BluRay.Half-SBS.x264.TrueHD.7.1.Atmos-FGT
  72. Language                                 : English
  73. Service kind                             : Complete Main
  74. Default                                  : No
  75. Forced                                   : No

  76. Audio #3
  77. ID                                       : 4
  78. Format                                   : AC-3
  79. Format/Info                              : Audio Coding 3
  80. Commercial name                          : Dolby Digital
  81. Codec ID                                 : A_AC3
  82. Duration                                 : 1 h 58 min
  83. Bit rate mode                            : Constant
  84. Bit rate                                 : 320 kb/s
  85. Channel(s)                               : 2 channels
  86. Channel layout                           : L R
  87. Sampling rate                            : 48.0 kHz
  88. Frame rate                               : 31.250 FPS (1536 SPF)
  89. Bit depth                                : 16 bits
  90. Compression mode                         : Lossy
  91. Stream size                              : 272 MiB (1%)
  92. Title                                    : Maleficent.Mistress.of.Evil.2019.1080p.3D.BluRay.Half-SBS.x264.TrueHD.7.1.Atmos-FGT
  93. Language                                 : English
  94. Service kind                             : Complete Main
  95. Default                                  : No
  96. Forced                                   : No

  97. Audio #4
  98. ID                                       : 5
  99. Format                                   : E-AC-3
  100. Format/Info                              : Enhanced AC-3
  101. Commercial name                          : Dolby Digital Plus
  102. Format profile                           : Blu-ray Disc
  103. Codec ID                                 : A_EAC3
  104. Duration                                 : 1 h 58 min
  105. Bit rate mode                            : Constant
  106. Bit rate                                 : 896 kb/s
  107. Channel(s)                               : 8 channels
  108. Channel layout                           : L R C LFE Ls Rs Lb Rb
  109. Sampling rate                            : 48.0 kHz
  110. Frame rate                               : 31.250 FPS (1536 SPF)
  111. Compression mode                         : Lossy
  112. Stream size                              : 762 MiB (4%)
  113. Title                                    : Maleficent.Mistress.of.Evil.2019.1080p.3D.BluRay.Half-SBS.x264.TrueHD.7.1.Atmos-FGT
  114. Language                                 : French
  115. Service kind                             : Complete Main
  116. Default                                  : No
  117. Forced                                   : No

  118. Audio #5
  119. ID                                       : 6
  120. Format                                   : E-AC-3
  121. Format/Info                              : Enhanced AC-3
  122. Commercial name                          : Dolby Digital Plus
  123. Format profile                           : Blu-ray Disc
  124. Codec ID                                 : A_EAC3
  125. Duration                                 : 1 h 58 min
  126. Bit rate mode                            : Constant
  127. Bit rate                                 : 896 kb/s
  128. Channel(s)                               : 8 channels
  129. Channel layout                           : L R C LFE Ls Rs Lb Rb
  130. Sampling rate                            : 48.0 kHz
  131. Frame rate                               : 31.250 FPS (1536 SPF)
  132. Compression mode                         : Lossy
  133. Stream size                              : 762 MiB (4%)
  134. Title                                    : Maleficent.Mistress.of.Evil.2019.1080p.3D.BluRay.Half-SBS.x264.TrueHD.7.1.Atmos-FGT
  135. Language                                 : German
  136. Service kind                             : Complete Main
  137. Default                                  : No
  138. Forced                                   : No

  139. Text #1
  140. ID                                       : 7
  141. Format                                   : PGS
  142. Muxing mode                              : zlib
  143. Codec ID                                 : S_HDMV/PGS
  144. Codec ID/Info                            : Picture based subtitle format used on BDs/HD-DVDs
  145. Duration                                 : 1 h 53 min
  146. Bit rate                                 : 42.2 kb/s
  147. Count of elements                        : 3210
  148. Stream size                              : 34.1 MiB (0%)
  149. Title                                    : English-PGS
  150. Language                                 : English
  151. Default                                  : Yes
  152. Forced                                   : No

  153. Text #2
  154. ID                                       : 8
  155. Format                                   : PGS
  156. Muxing mode                              : zlib
  157. Codec ID                                 : S_HDMV/PGS
  158. Codec ID/Info                            : Picture based subtitle format used on BDs/HD-DVDs
  159. Duration                                 : 1 h 57 min
  160. Bit rate                                 : 25.8 kb/s
  161. Count of elements                        : 1960
  162. Stream size                              : 21.6 MiB (0%)
  163. Title                                    : French-PGS
  164. Language                                 : French
  165. Default                                  : No
  166. Forced                                   : No

  167. Menu
  168. 00:00:00.000                             : en:Chapter 01
  169. 00:06:47.907                             : en:Chapter 02
  170. 00:09:11.676                             : en:Chapter 03
  171. 00:14:45.551                             : en:Chapter 04
  172. 00:19:27.833                             : en:Chapter 05
  173. 00:23:10.555                             : en:Chapter 06
  174. 00:33:51.904                             : en:Chapter 07
  175. 00:39:10.264                             : en:Chapter 08
  176. 00:42:19.578                             : en:Chapter 09
  177. 00:48:31.992                             : en:Chapter 10
  178. 00:52:44.744                             : en:Chapter 11
  179. 00:57:15.140                             : en:Chapter 12
  180. 00:59:26.145                             : en:Chapter 13
  181. 01:05:47.568                             : en:Chapter 14
  182. 01:09:31.750                             : en:Chapter 15
  183. 01:19:07.242                             : en:Chapter 16
  184. 01:22:48.546                             : en:Chapter 17
  185. 01:29:09.218                             : en:Chapter 18
  186. 01:35:00.653                             : en:Chapter 19
  187. 01:44:26.510                             : en:Chapter 20
  188. 01:51:06.993                             : en:Chapter 21
复制代码

沉睡魔咒2 Maleficent.Mistress.of.Evil.2019.1080p.3D.BluRay.Half-SBS.x264.TrueHD.7.1.Atmos-FGT 19.29GB-2.png 沉睡魔咒2 Maleficent.Mistress.of.Evil.2019.1080p.3D.BluRay.Half-SBS.x264.TrueHD.7.1.Atmos-FGT 19.29GB-3.png 沉睡魔咒2 Maleficent.Mistress.of.Evil.2019.1080p.3D.BluRay.Half-SBS.x264.TrueHD.7.1.Atmos-FGT 19.29GB-4.png






回复

使用道具 举报

发表于 2020-2-19 11:02:13 | 显示全部楼层

这东西我收了!谢谢楼主!蓝光电影网真好!
回复 支持 反对

使用道具 举报

 成长值: 2970

发表于 2020-2-19 16:24:43 | 显示全部楼层
谢谢楼主无私分享。
回复 支持 反对

使用道具 举报

懒得打字嘛,点击右侧快捷回复 【右侧内容,后台自定义】
您需要登录后才可以回帖 登录 | 立即加入

本版积分规则

现在加入蓝光电影网,注册一个账号
上个主题 下个主题 快速回复 收藏帖子 返回列表 客服中心 搜索

手机版|小黑屋| 蓝光电影网 |网站地图 

Copyright © 2015-2019 Comsenz Inc.  Template by 蓝光电影论坛 All Rights Reserved.

Powered by 蓝光电影网 X3.4

特别声明:本站所有资源均由网上收集而来,版权归原影音公司所有,如果侵犯了你的权益,请通知我们,我们会及时删除侵权内容.

快速回复 返回顶部 返回列表