找回密码

蓝光电影网

查看: 1433|回复: 26

[10bit.HDR] 丧尸乐园2 Zombieland.Double.Tap.2019.2160p.UHD.BluRay.X265.10bit.HDR.DTS-X.7.1-AAAUHD 11.69GB

[复制链接]

 成长值: 27235

发表于 2020-1-10 15:28:24 | 显示全部楼层 |阅读模式
丧尸乐园2 Zombieland.Double.Tap.2019.2160p.UHD.BluRay.X265.10bit.HDR.DTS-X.7.1-AAAUHD 11.69GB-1.png

译  名 丧尸乐园2 / Zombieland 2 / 丧尸乐园2:双击 / 丧尸乐园:连环尸杀(港) / 僵尸之地2 / 僵尸之地2:双击 / 尸乐园:脏比双拼(台)
片  名 Zombieland: Double Tap
年  代 2019
产  地 美国 / 加拿大
类  别 喜剧 / 动作 / 恐怖
语  言 英语
上映日期 2019-10-09(中国台湾) / 2019-10-18(美国)
IMDb评分  6.9/10 from 61783 users
IMDb链接  https://www.imdb.com/title/tt1560220
豆瓣评分 7.0/10 from 17907 users
豆瓣链接 https://movie.douban.com/subject/4185834/
片  长 99分钟
导  演 鲁本·弗雷斯彻 Ruben Fleischer
编  剧 戴夫·卡拉汉姆 Dave Callaham / 瑞特·里斯 Rhett Reese / 保罗·韦尼克 Paul Wernick
主  演 伍迪·哈里森 Woody Harrelson
       杰西·艾森伯格 Jesse Eisenberg
       艾玛·斯通 Emma Stone
       阿比盖尔·布雷斯林 Abigail Breslin
       佐伊·达奇 Zoey Deutch
       阿万·乔贾 Avan Jogia
       罗莎里奥·道森 Rosario Dawson
       卢克·威尔逊 Luke Wilson
       托马斯·米德蒂奇 Thomas Middleditch
       维多利亚·哈尔 Victoria Hall
       维克多·里维拉 Victor Rivera
       伊恩·格雷格 Ian Gregg
       德文·莫吉卡 Devin Mojica
       瑞秋·鲁特雷尔 Rachel Luttrell
       约翰·迪克森 John Dixon
       比尔·默瑞 Bill Murray
       阿尔·罗克 Al Roker
       莉莉·埃斯特凡 Lili Estefan
       塞尔吉奥·布里奥内斯 Sergio Briones
       蒂莫西·卡尔 Timothy Carr
       扎拉·麦克道威尔 Zara McDowell
       迪索·拉莫斯 Diezel Ramos


标  签 喜剧 | 丧尸 | 美国 | 搞笑 | 僵尸 | 2019 | 恐怖 | 动作

简  介  

  《僵尸之地》是鲁本·弗雷斯彻的导演处女作,上映后好评如潮——获得了烂番茄89%的惊人好评率,此片一举奠定了鲁本在好莱坞商业领域的地位。首映周末以2500万美元登顶冠军的《僵尸之地》,是受到几年前《僵尸肖恩》的启发进行创作的,影片讲述了一种致命病毒席卷了美国,只要被病毒感染,就会变成僵尸。最终,只有几个幸存者没有被感染病毒,决定逃离,获得生存的机会。两个性格迥异的男人凑到了一起,前者对待僵尸的进攻别有心得(制定了一大堆“规则”),后者则是个暴力崇尚者,企图杀光所有的僵尸。在他们逃亡的途中,邂逅了两个精明的女幸存者,他们四人决定一起分享对付僵尸的经验,获得逃生的机会。然而,在杀戮过程中,他们遭遇的危险超出了所有人的想象。按照好莱坞卖座片的类型规律,像《僵尸之地》这种投资仅2000多万美元,没有一线大牌主演的僵尸片,基本都是烂片集中营的当家老大,但此片的成功却来的非常迅猛。这全归功于导演的创意,影片结尾高潮处在游乐园大战僵尸一段,观赏性极强。
  《僵尸之地》的主演杰西·艾森伯格、伍迪·哈里森、艾玛·斯通、阿比盖尔·布莱斯林,目前已确定愿意回归剧组参加续集的拍摄,但剧本仍然在创作之中,预计10年上半年开机。
  电影《僵尸之地》(Zombieland)导演鲁本.费雷斯彻(Ruben Fleischer)近日在接受采访时透露《僵尸之地》续集有望2010年年底正式开拍。
  “我们正在与制片方接触,我们有一些点子它们也非常喜欢。我们肯定会以3D的形式拍摄这部续集。索尼现在已经有自己的3D部门了,我们将在周二(3月2日)参观索尼的3D部门。我知道所有原班人马都很激动回归续集,这将是1部拍摄过程十分精彩有趣的电影。剧本即将开始创作,我希望能在今年年底或者明年年初正式开拍《僵尸之地2》。”

  1. Video
  2. ID                                       : 1
  3. Format                                   : HEVC
  4. Format/Info                              : High Efficiency Video Coding
  5. Format profile                           : Main 10@L5.1@High
  6. HDR format                               : SMPTE ST 2086, HDR10 compatible
  7. Codec ID                                 : V_MPEGH/ISO/HEVC
  8. Duration                                 : 1 h 39 min
  9. Bit rate                                 : 9 774 kb/s
  10. Width                                    : 3 840 pixels
  11. Height                                   : 1 608 pixels
  12. Display aspect ratio                     : 2.40:1
  13. Frame rate mode                          : Constant
  14. Frame rate                               : 23.976 (24000/1001) FPS
  15. Color space                              : YUV
  16. Chroma subsampling                       : 4:2:0 (Type 2)
  17. Bit depth                                : 10 bits
  18. Bits/(Pixel*Frame)                       : 0.066
  19. Stream size                              : 6.76 GiB (59%)
  20. Title                                    : Zombieland.Double.Tap.2019.2160p.UHD.BluRay.x265-AAAUHD
  21. Writing library                          : x265 3.2+29-c5ff72937e9c:[Windows][GCC 9.2.1][64 bit] 10bit
  22. Encoding settings                        : cpuid=1111039 / frame-threads=5 / numa-pools=32,0 / wpp / no-pmode / no-pme / no-psnr / no-ssim / log-level=2 / input-csp=1 / input-res=3840x1608 / interlace=0 / total-frames=142464 / level-idc=51 / high-tier=1 / uhd-bd=0 / ref=4 / no-allow-non-conformance / repeat-headers / annexb / aud / hrd / info / hash=0 / no-temporal-layers / no-open-gop / min-keyint=1 / keyint=24 / gop-lookahead=0 / bframes=4 / b-adapt=2 / b-pyramid / bframe-bias=0 / rc-lookahead=25 / lookahead-slices=4 / scenecut=40 / hist-scenecut=0 / radl=0 / no-splice / no-intra-refresh / ctu=64 / min-cu-size=8 / rect / no-amp / max-tu-size=32 / tu-inter-depth=1 / tu-intra-depth=1 / limit-tu=0 / rdoq-level=2 / dynamic-rd=0.00 / no-ssim-rd / signhide / no-tskip / nr-intra=0 / nr-inter=0 / no-constrained-intra / no-strong-intra-smoothing / max-merge=3 / limit-refs=3 / limit-modes / me=3 / subme=3 / merange=57 / temporal-mvp / no-frame-dup / no-hme / weightp / no-weightb / no-analyze-src-pics / deblock=-3:-3 / no-sao / no-sao-non-deblock / rd=4 / selective-sao=0 / no-early-skip / rskip / no-fast-intra / no-tskip-fast / no-cu-lossless / no-b-intra / no-splitrd-skip / rdpenalty=0 / psy-rd=2.00 / psy-rdoq=1.00 / no-rd-refine / no-lossless / cbqpoffs=0 / crqpoffs=0 / rc=crf / crf=17.0 / qcomp=0.60 / qpstep=4 / stats-write=0 / stats-read=0 / vbv-maxrate=160000 / vbv-bufsize=160000 / vbv-init=0.9 / crf-max=0.0 / crf-min=0.0 / ipratio=1.40 / pbratio=1.30 / aq-mode=2 / aq-strength=1.00 / cutree / zone-count=0 / no-strict-cbr / qg-size=32 / no-rc-grain / qpmax=69 / qpmin=0 / no-const-vbv / sar=1 / overscan=0 / videoformat=5 / range=0 / colorprim=9 / transfer=16 / colormatrix=9 / chromaloc=1 / chromaloc-top=2 / chromaloc-bottom=2 / display-window=0 / master-display=G(13250,34500)B(7500,3000)R(34000,16000)WP(15635,16450)L(40000000,50) / cll=1001,387 / min-luma=0 / max-luma=1023 / log2-max-poc-lsb=8 / vui-timing-info / vui-hrd-info / slices=1 / no-opt-qp-pps / no-opt-ref-list-length-pps / no-multi-pass-opt-rps / scenecut-bias=0.05 / hist-threshold=0.01 / no-opt-cu-delta-qp / no-aq-motion / hdr10 / hdr10-opt / no-dhdr10-opt / no-idr-recovery-sei / analysis-reuse-level=5 / scale-factor=0 / refine-intra=0 / refine-inter=0 / refine-mv=1 / refine-ctu-distortion=0 / no-limit-sao / ctu-info=0 / no-lowpass-dct / refine-analysis-type=0 / copy-pic=1 / max-ausize-factor=1.0 / no-dynamic-refine / no-single-sei / no-hevc-aq / no-svt / no-field / qp-adaptation-range=1.00 / no-scenecut-aware-qp
  23. Default                                  : Yes
  24. Forced                                   : No
  25. Color range                              : Limited
  26. Color primaries                          : BT.2020
  27. Transfer characteristics                 : PQ
  28. Matrix coefficients                      : BT.2020 non-constant
  29. Mastering display color primaries        : Display P3
  30. Mastering display luminance              : min: 0.0050 cd/m2, max: 4000 cd/m2
  31. Maximum Content Light Level              : 1001 cd/m2
  32. Maximum Frame-Average Light Level        : 387 cd/m2
  33. Audio #1
  34. ID                                       : 2
  35. Format                                   : DTS XLL
  36. Format/Info                              : Digital Theater Systems
  37. Commercial name                          : DTS-HD Master Audio
  38. Codec ID                                 : A_DTS
  39. Duration                                 : 1 h 39 min
  40. Bit rate mode                            : Variable
  41. Bit rate                                 : 5 292 kb/s
  42. Channel(s)                               : 8 channels
  43. Channel layout                           : C L R LFE Lb Rb Lss Rss
  44. Sampling rate                            : 48.0 kHz
  45. Frame rate                               : 93.750 FPS (512 SPF)
  46. Bit depth                                : 24 bits
  47. Compression mode                         : Lossless
  48. Stream size                              : 3.66 GiB (32%)
  49. Title                                    : English DTS-HD Master Audio (DTS-HD)
  50. Language                                 : English
  51. Default                                  : Yes
  52. Forced                                   : No
  53. Audio #2
  54. ID                                       : 3
  55. Format                                   : DTS
  56. Format/Info                              : Digital Theater Systems
  57. Codec ID                                 : A_DTS
  58. Duration                                 : 1 h 39 min
  59. Bit rate mode                            : Constant
  60. Bit rate                                 : 1 509 kb/s
  61. Channel(s)                               : 6 channels
  62. Channel layout                           : C L R Ls Rs LFE
  63. Sampling rate                            : 48.0 kHz
  64. Frame rate                               : 93.750 FPS (512 SPF)
  65. Bit depth                                : 24 bits
  66. Compression mode                         : Lossy
  67. Stream size                              : 1.04 GiB (9%)
  68. Title                                    : English Digital Theater Systems (DTS)
  69. Language                                 : English
  70. Default                                  : No
  71. Forced                                   : No
  72. Text #1
  73. ID                                       : 4
  74. Format                                   : UTF-8
  75. Codec ID                                 : S_TEXT/UTF8
  76. Codec ID/Info                            : UTF-8 Plain Text
  77. Duration                                 : 1 h 38 min
  78. Bit rate                                 : 76 b/s
  79. Count of elements                        : 1414
  80. Stream size                              : 55.2 KiB (0%)
  81. Title                                    : English
  82. Language                                 : English
  83. Default                                  : No
  84. Forced                                   : No
  85. Text #2
  86. ID                                       : 5
  87. Format                                   : UTF-8
  88. Codec ID                                 : S_TEXT/UTF8
  89. Codec ID/Info                            : UTF-8 Plain Text
  90. Duration                                 : 1 h 38 min
  91. Bit rate                                 : 84 b/s
  92. Count of elements                        : 1599
  93. Stream size                              : 61.1 KiB (0%)
  94. Title                                    : English SDH
  95. Language                                 : English
  96. Default                                  : No
  97. Forced                                   : No
  98. Text #3
  99. ID                                       : 6
  100. Format                                   : PGS
  101. Codec ID                                 : S_HDMV/PGS
  102. Codec ID/Info                            : Picture based subtitle format used on BDs/HD-DVDs
  103. Duration                                 : 1 h 38 min
  104. Bit rate                                 : 46.4 kb/s
  105. Count of elements                        : 2844
  106. Stream size                              : 32.6 MiB (0%)
  107. Title                                    : English PGS
  108. Language                                 : English
  109. Default                                  : No
  110. Forced                                   : No
  111. Text #4
  112. ID                                       : 7
  113. Format                                   : PGS
  114. Codec ID                                 : S_HDMV/PGS
  115. Codec ID/Info                            : Picture based subtitle format used on BDs/HD-DVDs
  116. Duration                                 : 1 h 38 min
  117. Bit rate                                 : 51.7 kb/s
  118. Count of elements                        : 3210
  119. Stream size                              : 36.4 MiB (0%)
  120. Title                                    : English SDH PGS
  121. Language                                 : English
  122. Default                                  : No
  123. Forced                                   : No
  124. Menu
  125. 00:00:00.000                             : :Chapter 01
  126. 00:05:00.675                             : :Chapter 02
  127. 00:11:08.001                             : :Chapter 03
  128. 00:15:24.507                             : :Chapter 04
  129. 00:21:16.192                             : :Chapter 05
  130. 00:29:15.545                             : :Chapter 06
  131. 00:36:55.422                             : :Chapter 07
  132. 00:44:03.015                             : :Chapter 08
  133. 00:50:12.968                             : :Chapter 09
  134. 00:57:52.511                             : :Chapter 10
  135. 01:03:51.870                             : :Chapter 11
  136. 01:06:50.048                             : :Chapter 12
  137. 01:10:12.125                             : :Chapter 13
  138. 01:15:40.119                             : :Chapter 14
  139. 01:23:45.312                             : :Chapter 15
  140. 01:29:48.216                             : :Chapter 16
复制代码
135813wvbtpzjzbnvicwbi.png 135814swidhsw9nr99wqnl.png 135813s27x2z42brh7rjx7.png


回复

使用道具 举报

发表于 2020-1-10 15:31:44 | 显示全部楼层
楼主发贴辛苦了,谢谢楼主分享!我觉得蓝光电影网是注册对了!
回复 支持 反对

使用道具 举报

发表于 2020-1-10 16:59:32 | 显示全部楼层
感谢楼主分享,嘻嘻
回复 支持 反对

使用道具 举报

发表于 2020-1-10 19:43:53 | 显示全部楼层
楼主发贴辛苦了,谢谢楼主分享!我觉得蓝光电影网是注册对了!
回复 支持 反对

使用道具 举报

发表于 2020-1-10 20:06:13 | 显示全部楼层
感谢分享!
回复

使用道具 举报

发表于 2020-1-10 20:30:21 | 显示全部楼层
楼主发贴辛苦了,谢谢楼主分享!我觉得蓝光电影网是注册对了!
回复 支持 反对

使用道具 举报

发表于 2020-1-10 21:53:38 | 显示全部楼层
第一部还是非常好看的
回复 支持 反对

使用道具 举报

发表于 2020-1-10 22:53:53 来自手机 | 显示全部楼层
谢谢老板 哈哈哈
回复 支持 反对

使用道具 举报

发表于 2020-1-11 06:21:25 | 显示全部楼层
楼主发贴辛苦了,谢谢楼主分享!我觉得蓝光电影网是注册对了!
回复 支持 反对

使用道具 举报

发表于 2020-1-11 10:54:56 | 显示全部楼层
楼主发贴辛苦了,谢谢楼主分享!我觉得蓝光电影网是注册对了!
回复 支持 反对

使用道具 举报

懒得打字嘛,点击右侧快捷回复 【右侧内容,后台自定义】
您需要登录后才可以回帖 登录 | 立即加入

本版积分规则

现在加入蓝光电影网,注册一个账号
上个主题 下个主题 快速回复 收藏帖子 返回列表 客服中心 搜索

手机版|小黑屋| 蓝光电影网 |网站地图 

Copyright © 2015-2019 Comsenz Inc.  Template by 蓝光电影论坛 All Rights Reserved.

Powered by 蓝光电影网 X3.4

特别声明:本站所有资源均由网上收集而来,版权归原影音公司所有,如果侵犯了你的权益,请通知我们,我们会及时删除侵权内容.

快速回复 返回顶部 返回列表