找回密码

蓝光电影网

查看: 963|回复: 18

圣诞夜惊魂/怪诞城之夜 The.Nightmare.Before.Christmas.1993.3D.1080p.BluRay.x264-GUACAMOLE 5.46GB

[复制链接]

 成长值: 26200

发表于 2019-12-22 22:50:45 | 显示全部楼层 |阅读模式
圣诞夜惊魂/怪诞城之夜 The.Nightmare.Before.Christmas.1993.3D.1080p.BluRay.x264-GUACAMOLE 5.46GB-1.png

译  名 圣诞夜惊魂 / 怪诞城之夜
片  名 The Nightmare Before Christmas
年  代 1993
产  地 美国
类  别 剧情 / 动画 / 奇幻
语  言 英语
上映日期 1993-10-29(美国)
IMDb评分  8.0/10 from 270920 users
IMDb链接  http://www.imdb.com/title/tt0107688
豆瓣评分 8.2/10 from 85429 users
豆瓣链接 https://movie.douban.com/subject/1297131/
片  长 76分钟
导  演 亨利·塞利克 Henry Selick
编  剧 蒂姆·波顿 Tim Burton / Michael McDowell / 卡罗琳·汤普森 Caroline Thompson
主  演 丹尼·艾夫曼 Danny Elfman
       克里斯·萨兰登 Chris Sarandon
       凯瑟琳·欧哈拉 Catherine O'Hara
       威廉·赫基 William Hickey
       Glenn Shadix
       保罗·雷宾斯 Paul Reubens
       肯·帕吉 Ken Page
       Debi Durst
       格雷格·普罗普斯 Greg Proops


标  签 动画 | TimBurton | 美国 | 圣诞夜惊魂 | 动画片 | 美国电影 | 电影 | 卡通

简  介  

  万圣镇的各位鬼怪,已经习惯于在每年万圣节那天出没搞作一下,他们是彻头彻尾的少根筋的生物,只晓得如何吓人。而南瓜王子杰克,是非常与众不同的一个。他已经厌倦了带给人们惊恐的玩意,一心想做出某些改变。偶然一次打开了圣诞镇的大门,让他眼前豁然一亮,杰克心中燃起了要带领兄弟制造圣诞欢乐的决心。
  但是,这帮万圣镇的鬼怪们似乎并不明白其中深意。杰克绑架了胖乎乎的圣诞老人,吩咐伙计们开始埋头制作圣诞礼物。满脑只有恐怖点子的万圣镇兄弟,又怎能逃过思维惯性,做出令人欢乐的礼物呢。于是,恐怖的、吓人的礼物将在圣诞那夜抛给孩子们,当杰克坐着人造鹿车派出礼物时,一枚高射炮正对准了这个好心办坏事的可怜虫。

获奖情况  

  第66届奥斯卡金像奖(1994)
  最佳视觉效果(提名) 埃里克·莱顿 / Pete Kozachik / Ariel Velasco-Shaw / Gordon Baker

  第22届动画安妮奖(1994)
  最佳动画长片(提名)
  最佳艺术指导 迪恩·泰勒
  最佳创意监督 亨利·塞利克
  1. Video
  2. ID                                       : 1
  3. Format                                   : AVC
  4. Format/Info                              : Advanced Video Codec
  5. Format profile                           : High@L4
  6. MultiView_Count                          : 2
  7. MultiView_Layout                         : Side by Side (left eye first)
  8. Format settings                          : CABAC / 4 Ref Frames
  9. Format settings, CABAC                   : Yes
  10. Format settings, Reference frames        : 4 frames
  11. Codec ID                                 : V_MPEG4/ISO/AVC
  12. Duration                                 : 1 h 16 min
  13. Bit rate                                 : 9 556 kb/s
  14. Width                                    : 1 920 pixels
  15. Height                                   : 1 080 pixels
  16. Display aspect ratio                     : 16:9
  17. Frame rate mode                          : Constant
  18. Frame rate                               : 23.976 FPS
  19. Color space                              : YUV
  20. Chroma subsampling                       : 4:2:0
  21. Bit depth                                : 8 bits
  22. Scan type                                : Progressive
  23. Bits/(Pixel*Frame)                       : 0.192
  24. Stream size                              : 5.11 GiB (94%)
  25. Writing library                          : x264 core 159 r2991 1771b55
  26. Encoding settings                        : cabac=1 / ref=4 / deblock=1:-1:-1 / analyse=0x3:0x113 / me=umh / subme=8 / psy=1 / psy_rd=1.00:0.00 / mixed_ref=1 / me_range=16 / chroma_me=1 / trellis=2 / 8x8dct=1 / cqm=0 / deadzone=21,11 / fast_pskip=0 / chroma_qp_offset=-2 / threads=24 / lookahead_threads=4 / sliced_threads=0 / nr=0 / decimate=1 / interlaced=0 / bluray_compat=0 / constrained_intra=0 / bframes=5 / b_pyramid=2 / b_adapt=1 / b_bias=0 / direct=3 / weightb=1 / open_gop=0 / weightp=1 / keyint=250 / keyint_min=23 / scenecut=40 / intra_refresh=0 / rc_lookahead=40 / rc=2pass / mbtree=1 / bitrate=9556 / ratetol=1.0 / qcomp=0.60 / qpmin=0 / qpmax=69 / qpstep=4 / cplxblur=20.0 / qblur=0.5 / ip_ratio=1.40 / aq=1:1.00
  27. Language                                 : English
  28. Default                                  : Yes
  29. Forced                                   : No

  30. Audio
  31. ID                                       : 2
  32. Format                                   : AC-3
  33. Format/Info                              : Audio Coding 3
  34. Commercial name                          : Dolby Digital
  35. Codec ID                                 : A_AC3
  36. Duration                                 : 1 h 16 min
  37. Bit rate mode                            : Constant
  38. Bit rate                                 : 640 kb/s
  39. Channel(s)                               : 6 channels
  40. Channel layout                           : L R C LFE Ls Rs
  41. Sampling rate                            : 48.0 kHz
  42. Frame rate                               : 31.250 FPS (1536 SPF)
  43. Bit depth                                : 16 bits
  44. Compression mode                         : Lossy
  45. Stream size                              : 351 MiB (6%)
  46. Language                                 : English
  47. Service kind                             : Complete Main
  48. Default                                  : Yes
  49. Forced                                   : No
复制代码

圣诞夜惊魂/怪诞城之夜 The.Nightmare.Before.Christmas.1993.3D.1080p.BluRay.x264-GUACAMOLE 5.46GB-2.png







回复

使用道具 举报

发表于 2019-12-23 07:47:44 | 显示全部楼层
谢谢分享,快乐每一天
回复 支持 反对

使用道具 举报

发表于 2019-12-23 16:09:46 | 显示全部楼层
他们是彻头彻尾的少根筋的生物,只晓得如何吓人。
回复 支持 反对

使用道具 举报

发表于 2020-1-2 19:05:48 | 显示全部楼层

楼主太厉害了!楼主,电影应该很好看我觉得蓝光电影网真是个好地方!
回复 支持 反对

使用道具 举报

发表于 2020-1-7 00:19:03 | 显示全部楼层
谢谢楼主分享
回复 支持 反对

使用道具 举报

发表于 2020-1-8 21:08:24 | 显示全部楼层
辛苦楼主,,楼主牛逼,,厉害了
回复 支持 反对

使用道具 举报

发表于 2020-1-13 14:07:47 | 显示全部楼层
楼主发贴辛苦了,谢谢楼主分享!我觉得蓝光电影网是注册对了!
回复 支持 反对

使用道具 举报

发表于 2020-1-14 07:46:00 | 显示全部楼层
谢谢分享。快乐每一天
回复 支持 反对

使用道具 举报

发表于 2020-1-17 15:10:11 | 显示全部楼层
感谢楼主分享
回复 支持 反对

使用道具 举报

发表于 2020-1-18 13:52:34 | 显示全部楼层
楼主发贴辛苦了,谢谢楼主分享!我觉得蓝光电影网是注册对了!
回复 支持 反对

使用道具 举报

懒得打字嘛,点击右侧快捷回复 【右侧内容,后台自定义】
您需要登录后才可以回帖 登录 | 立即加入

本版积分规则

现在加入蓝光电影网,注册一个账号
上个主题 下个主题 快速回复 收藏帖子 返回列表 客服中心 搜索

手机版|小黑屋| 蓝光电影网 |网站地图 

Copyright © 2015-2019 Comsenz Inc.  Template by 蓝光电影论坛 All Rights Reserved.

Powered by 蓝光电影网 X3.4

特别声明:本站所有资源均由网上收集而来,版权归原影音公司所有,如果侵犯了你的权益,请通知我们,我们会及时删除侵权内容.

快速回复 返回顶部 返回列表