找回密码

蓝光电影网

查看: 232|回复: 7

[8bit.SDR] 小丑回魂2 It.Chapter.Two.2019.2160p.BluRay.x264.8bit.SDR.DTS-HD.MA.TrueHD.7.1.Atmos-SWTYBLZ 61.41GB

[复制链接]

 成长值: 23620

发表于 2019-12-2 20:59:13 | 显示全部楼层 |阅读模式
小丑回魂2 It.Chapter.Two.2019.2160p.BluRay.x264.8bit.SDR.DTS-HD.MA.TrueHD.7.1.Atmos-SWTYBLZ 61.41GB-1.png

译  名 小丑回魂2 / It 2 / 它:第二章(台)
片  名 It: Chapter Two
年  代 2019
产  地 美国
类  别 恐怖
语  言 英语
上映日期 2019-09-06(美国)
IMDb评分  7.0/10 from 82324 users
IMDb链接  http://www.imdb.com/title/tt7349950
豆瓣评分 6.6/10 from 5037 users
豆瓣链接 https://movie.douban.com/subject/27133569/
片  长 169分钟
导  演 安德斯·穆斯切蒂 Andrés Muschietti
编  剧 加里·多伯曼 Gary Dauberman / 斯蒂芬·金 Stephen King
主  演 詹姆斯·麦卡沃伊 James McAvoy
       杰西卡·查斯坦 Jessica Chastain
       比尔·斯卡斯加德 Bill Skarsg?rd
       比尔·哈德尔 Bill Hader
       索菲娅·莉莉丝 Sophia Lillis
       杰克·迪伦·格雷泽 Jack Dylan Grazer
       菲恩·伍法德 Finn Wolfhard
       杰登·马泰尔 Jaeden Martell
       特洛伊·詹姆斯 Troy James
       哈维尔·博泰特 Javier Botet
       杰·瑞恩 Jay Ryan
       斯蒂芬·金 Stephen King
       杰克逊·罗伯特·斯科特 Jackson Robert Scott
       杰里米·雷·泰勒 Jeremy Ray Taylor
       泽维尔·多兰 Xavier Dolan
       杰克·威利 Jake Weary
       尼古拉斯·汉密尔顿 Nicholas Hamilton
       杰丝·威克斯勒 Jess Weixler
       詹姆斯·兰索恩 James Ransone
       瓦耶特·奥莱夫 Wyatt Oleff
       欧文·泰格 Owen Teague
       艾赛亚·穆斯塔法 Isaiah Mustafa
       安迪·比恩 Andy Bean
       蒂奇·格兰特 Teach Grant
       泰勒·飞瑞 Taylor Frey
       贾森·福克斯 Jason Fuchs
       乔森·雅各布 Chosen Jacobs
       斯蒂夫·博加尔特 Stephen Bogaert
       洛根·汤普森 Logan Thompson
       杰克·辛 Jake Sim
       维尔·贝布林克 Will Beinbrink
       安东尼·尤埃西 Anthony Ulc


标  签 恐怖 | 惊悚 | 美国 | 2019 | 小说改编 | 超自然 | 经典 | 小丑

简  介  

  故事发生在1989年夏季事件的27年后,失败者俱乐部成员已经长大并搬走了,直到一个不详的电话把他们召回缅因州的德利镇,对抗他们古老、会变形的敌人—跳舞小丑潘尼怀斯。
  1. Video
  2. ID                                       : 1
  3. Format                                   : AVC
  4. Format/Info                              : Advanced Video Codec
  5. Format profile                           : [email protected]
  6. Format settings                          : CABAC / 5 Ref Frames
  7. Format settings, CABAC                   : Yes
  8. Format settings, Reference frames        : 5 frames
  9. Codec ID                                 : V_MPEG4/ISO/AVC
  10. Duration                                 : 2 h 49 min
  11. Bit rate                                 : 43.4 Mb/s
  12. Width                                    : 3 840 pixels
  13. Height                                   : 1 608 pixels
  14. Display aspect ratio                     : 2.40:1
  15. Frame rate mode                          : Constant
  16. Frame rate                               : 23.976 (24000/1001) FPS
  17. Color space                              : YUV
  18. Chroma subsampling                       : 4:2:0
  19. Bit depth                                : 8 bits
  20. Scan type                                : Progressive
  21. Bits/(Pixel*Frame)                       : 0.293
  22. Stream size                              : 51.4 GiB (84%)
  23. Title                                    : It.Chapter.Two.2019.2160p.BluRay.x264.8bit.SDR.DTS-HD.MA.TrueHD.7.1.Atmos-SWTYBLZ
  24. Writing library                          : x264 core 157 r2935 545de2f
  25. Encoding settings                        : cabac=1 / ref=5 / deblock=1:-1:-1 / analyse=0x3:0x113 / me=umh / subme=10 / psy=1 / psy_rd=1.00:0.15 / mixed_ref=1 / me_range=48 / chroma_me=1 / trellis=2 / 8x8dct=1 / cqm=0 / deadzone=21,11 / fast_pskip=1 / chroma_qp_offset=-3 / threads=50 / lookahead_threads=4 / sliced_threads=0 / nr=0 / decimate=0 / interlaced=0 / bluray_compat=0 / constrained_intra=0 / bframes=3 / b_pyramid=2 / b_adapt=2 / b_bias=0 / direct=3 / weightb=1 / open_gop=0 / weightp=2 / keyint=250 / keyint_min=23 / scenecut=40 / intra_refresh=0 / rc_lookahead=50 / rc=crf / mbtree=1 / crf=18.0 / qcomp=0.60 / qpmin=0 / qpmax=69 / qpstep=4 / ip_ratio=1.40 / aq=1:1.00
  26. Language                                 : English
  27. Default                                  : Yes
  28. Forced                                   : No

  29. Audio #1
  30. ID                                       : 2
  31. Format                                   : MLP FBA 16-ch
  32. Format/Info                              : Meridian Lossless Packing FBA with 16-channel presentation
  33. Commercial name                          : Dolby TrueHD with Dolby Atmos
  34. Codec ID                                 : A_TRUEHD
  35. Duration                                 : 2 h 49 min
  36. Bit rate mode                            : Variable
  37. Bit rate                                 : 3 408 kb/s
  38. Maximum bit rate                         : 5 559 kb/s
  39. Channel(s)                               : 8 channels
  40. Channel layout                           : L R C LFE Ls Rs Lb Rb
  41. Sampling rate                            : 48.0 kHz
  42. Frame rate                               : 1 200.000 FPS (40 SPF)
  43. Compression mode                         : Lossless
  44. Stream size                              : 4.03 GiB (7%)
  45. Title                                    : It.Chapter.Two.2019.2160p.BluRay.x264.8bit.SDR.DTS-HD.MA.TrueHD.7.1.Atmos-SWTYBLZ
  46. Language                                 : English
  47. Default                                  : Yes
  48. Forced                                   : No
  49. Number of dynamic objects                : 15
  50. Bed channel count                        : 1 channel
  51. Bed channel configuration                : LFE

  52. Audio #2
  53. ID                                       : 3
  54. Format                                   : DTS XLL
  55. Format/Info                              : Digital Theater Systems
  56. Commercial name                          : DTS-HD Master Audio
  57. Codec ID                                 : A_DTS
  58. Duration                                 : 2 h 49 min
  59. Bit rate mode                            : Variable
  60. Bit rate                                 : 4 093 kb/s
  61. Channel(s)                               : 8 channels
  62. Channel layout                           : C L R LFE Lb Rb Lss Rss
  63. Sampling rate                            : 48.0 kHz
  64. Frame rate                               : 93.750 FPS (512 SPF)
  65. Bit depth                                : 24 bits
  66. Compression mode                         : Lossless
  67. Stream size                              : 4.84 GiB (8%)
  68. Title                                    : It.Chapter.Two.2019.2160p.BluRay.x264.8bit.SDR.DTS-HD.MA.TrueHD.7.1.Atmos-SWTYBLZ
  69. Language                                 : English
  70. Default                                  : No
  71. Forced                                   : No

  72. Audio #3
  73. ID                                       : 4
  74. Format                                   : AC-3
  75. Format/Info                              : Audio Coding 3
  76. Commercial name                          : Dolby Digital
  77. Codec ID                                 : A_AC3
  78. Duration                                 : 2 h 49 min
  79. Bit rate mode                            : Constant
  80. Bit rate                                 : 640 kb/s
  81. Channel(s)                               : 6 channels
  82. Channel layout                           : L R C LFE Ls Rs
  83. Sampling rate                            : 48.0 kHz
  84. Frame rate                               : 31.250 FPS (1536 SPF)
  85. Bit depth                                : 16 bits
  86. Compression mode                         : Lossy
  87. Stream size                              : 776 MiB (1%)
  88. Title                                    : It.Chapter.Two.2019.2160p.BluRay.x264.8bit.SDR.DTS-HD.MA.TrueHD.7.1.Atmos-SWTYBLZ
  89. Language                                 : English
  90. Service kind                             : Complete Main
  91. Default                                  : No
  92. Forced                                   : No

  93. Text #1
  94. ID                                       : 5
  95. Format                                   : UTF-8
  96. Codec ID                                 : S_TEXT/UTF8
  97. Codec ID/Info                            : UTF-8 Plain Text
  98. Duration                                 : 2 h 44 min
  99. Bit rate                                 : 50 b/s
  100. Count of elements                        : 2404
  101. Stream size                              : 60.4 KiB (0%)
  102. Title                                    : English-SRT
  103. Language                                 : English
  104. Default                                  : Yes
  105. Forced                                   : No

  106. Text #2
  107. ID                                       : 6
  108. Format                                   : PGS
  109. Muxing mode                              : zlib
  110. Codec ID                                 : S_HDMV/PGS
  111. Codec ID/Info                            : Picture based subtitle format used on BDs/HD-DVDs
  112. Duration                                 : 2 h 44 min
  113. Bit rate                                 : 34.3 kb/s
  114. Count of elements                        : 5486
  115. Stream size                              : 40.4 MiB (0%)
  116. Title                                    : English-PGS
  117. Language                                 : English
  118. Default                                  : No
  119. Forced                                   : No

  120. Text #3
  121. ID                                       : 7
  122. Format                                   : PGS
  123. Muxing mode                              : zlib
  124. Codec ID                                 : S_HDMV/PGS
  125. Codec ID/Info                            : Picture based subtitle format used on BDs/HD-DVDs
  126. Duration                                 : 2 h 48 min
  127. Bit rate                                 : 22.0 kb/s
  128. Count of elements                        : 3930
  129. Stream size                              : 26.5 MiB (0%)
  130. Title                                    : French-PGS
  131. Language                                 : French
  132. Default                                  : No
  133. Forced                                   : No

  134. Text #4
  135. ID                                       : 8
  136. Format                                   : PGS
  137. Muxing mode                              : zlib
  138. Codec ID                                 : S_HDMV/PGS
  139. Codec ID/Info                            : Picture based subtitle format used on BDs/HD-DVDs
  140. Duration                                 : 2 h 49 min
  141. Bit rate                                 : 32.3 kb/s
  142. Count of elements                        : 5586
  143. Stream size                              : 39.1 MiB (0%)
  144. Title                                    : Italian-PGS
  145. Language                                 : Italian
  146. Default                                  : No
  147. Forced                                   : No

  148. Text #5
  149. ID                                       : 9
  150. Format                                   : PGS
  151. Muxing mode                              : zlib
  152. Codec ID                                 : S_HDMV/PGS
  153. Codec ID/Info                            : Picture based subtitle format used on BDs/HD-DVDs
  154. Duration                                 : 2 h 48 min
  155. Bit rate                                 : 24.9 kb/s
  156. Count of elements                        : 4614
  157. Stream size                              : 30.0 MiB (0%)
  158. Title                                    : Chinese-PGS
  159. Language                                 : Chinese
  160. Default                                  : No
  161. Forced                                   : No

  162. Text #6
  163. ID                                       : 10
  164. Format                                   : PGS
  165. Muxing mode                              : zlib
  166. Codec ID                                 : S_HDMV/PGS
  167. Codec ID/Info                            : Picture based subtitle format used on BDs/HD-DVDs
  168. Duration                                 : 2 h 48 min
  169. Bit rate                                 : 30.4 kb/s
  170. Count of elements                        : 4680
  171. Stream size                              : 36.7 MiB (0%)
  172. Title                                    : Chinese-PGS
  173. Language                                 : Chinese
  174. Default                                  : No
  175. Forced                                   : No

  176. Text #7
  177. ID                                       : 11
  178. Format                                   : PGS
  179. Muxing mode                              : zlib
  180. Codec ID                                 : S_HDMV/PGS
  181. Codec ID/Info                            : Picture based subtitle format used on BDs/HD-DVDs
  182. Duration                                 : 2 h 48 min
  183. Bit rate                                 : 25.5 kb/s
  184. Count of elements                        : 4238
  185. Stream size                              : 30.7 MiB (0%)
  186. Title                                    : Chinese-PGS
  187. Language                                 : Chinese
  188. Default                                  : No
  189. Forced                                   : No

  190. Text #8
  191. ID                                       : 12
  192. Format                                   : PGS
  193. Muxing mode                              : zlib
  194. Codec ID                                 : S_HDMV/PGS
  195. Codec ID/Info                            : Picture based subtitle format used on BDs/HD-DVDs
  196. Duration                                 : 2 h 48 min
  197. Bit rate                                 : 16.8 kb/s
  198. Count of elements                        : 4464
  199. Stream size                              : 20.3 MiB (0%)
  200. Title                                    : Korean-PGS
  201. Language                                 : Korean
  202. Default                                  : No
  203. Forced                                   : No

  204. Text #9
  205. ID                                       : 13
  206. Format                                   : PGS
  207. Muxing mode                              : zlib
  208. Codec ID                                 : S_HDMV/PGS
  209. Codec ID/Info                            : Picture based subtitle format used on BDs/HD-DVDs
  210. Duration                                 : 2 h 48 min
  211. Bit rate                                 : 26.1 kb/s
  212. Count of elements                        : 4476
  213. Stream size                              : 31.5 MiB (0%)
  214. Title                                    : Spanish-PGS
  215. Language                                 : Spanish
  216. Default                                  : No
  217. Forced                                   : No

  218. Text #10
  219. ID                                       : 14
  220. Format                                   : PGS
  221. Muxing mode                              : zlib
  222. Codec ID                                 : S_HDMV/PGS
  223. Codec ID/Info                            : Picture based subtitle format used on BDs/HD-DVDs
  224. Duration                                 : 2 h 48 min
  225. Bit rate                                 : 27.4 kb/s
  226. Count of elements                        : 4584
  227. Stream size                              : 33.1 MiB (0%)
  228. Title                                    : Spanish-PGS
  229. Language                                 : Spanish
  230. Default                                  : No
  231. Forced                                   : No

  232. Text #11
  233. ID                                       : 15
  234. Format                                   : PGS
  235. Muxing mode                              : zlib
  236. Codec ID                                 : S_HDMV/PGS
  237. Codec ID/Info                            : Picture based subtitle format used on BDs/HD-DVDs
  238. Duration                                 : 2 h 48 min
  239. Bit rate                                 : 25.9 kb/s
  240. Count of elements                        : 4490
  241. Stream size                              : 31.2 MiB (0%)
  242. Title                                    : Portuguese-PGS
  243. Language                                 : Portuguese
  244. Default                                  : No
  245. Forced                                   : No

  246. Text #12
  247. ID                                       : 16
  248. Format                                   : PGS
  249. Muxing mode                              : zlib
  250. Codec ID                                 : S_HDMV/PGS
  251. Codec ID/Info                            : Picture based subtitle format used on BDs/HD-DVDs
  252. Duration                                 : 2 h 48 min
  253. Bit rate                                 : 27.1 kb/s
  254. Count of elements                        : 4614
  255. Stream size                              : 32.7 MiB (0%)
  256. Title                                    : Thai-PGS
  257. Language                                 : Thai
  258. Default                                  : No
  259. Forced                                   : No

  260. Menu
  261. 00:00:00.000                             : en:Chapter 01
  262. 00:09:10.216                             : en:Chapter 02
  263. 00:19:06.270                             : en:Chapter 03
  264. 00:27:00.744                             : en:Chapter 04
  265. 00:37:51.060                             : en:Chapter 05
  266. 00:46:19.693                             : en:Chapter 06
  267. 00:55:46.468                             : en:Chapter 07
  268. 01:05:36.182                             : en:Chapter 08
  269. 01:17:18.759                             : en:Chapter 09
  270. 01:29:21.522                             : en:Chapter 10
  271. 01:41:02.973                             : en:Chapter 11
  272. 01:49:11.211                             : en:Chapter 12
  273. 01:59:33.666                             : en:Chapter 13
  274. 02:05:31.774                             : en:Chapter 14
  275. 02:14:25.932                             : en:Chapter 15
  276. 02:22:43.888                             : en:Chapter 16
  277. 02:32:57.042                             : en:Chapter 17
  278. 02:42:15.475                             : en:Chapter 18
  279. 02:44:52.424                             : en:Chapter 19
复制代码

小丑回魂2 It.Chapter.Two.2019.2160p.BluRay.x264.8bit.SDR.DTS-HD.MA.TrueHD.7.1.Atmos-SWTYBLZ 61.41GB-2.png 小丑回魂2 It.Chapter.Two.2019.2160p.BluRay.x264.8bit.SDR.DTS-HD.MA.TrueHD.7.1.Atmos-SWTYBLZ 61.41GB-3.png 小丑回魂2 It.Chapter.Two.2019.2160p.BluRay.x264.8bit.SDR.DTS-HD.MA.TrueHD.7.1.Atmos-SWTYBLZ 61.41GB-1.png 小丑回魂2 It.Chapter.Two.2019.2160p.BluRay.x264.8bit.SDR.DTS-HD.MA.TrueHD.7.1.Atmos-SWTYBLZ 61.41GB-5.png 小丑回魂2 It.Chapter.Two.2019.2160p.BluRay.x264.8bit.SDR.DTS-HD.MA.TrueHD.7.1.Atmos-SWTYBLZ 61.41GB-6.png 小丑回魂2 It.Chapter.Two.2019.2160p.BluRay.x264.8bit.SDR.DTS-HD.MA.TrueHD.7.1.Atmos-SWTYBLZ 61.41GB-7.png 小丑回魂2 It.Chapter.Two.2019.2160p.BluRay.x264.8bit.SDR.DTS-HD.MA.TrueHD.7.1.Atmos-SWTYBLZ 61.41GB-8.png







回复

使用道具 举报

发表于 2019-12-2 22:19:38 | 显示全部楼层
支持 支持!!!
回复

使用道具 举报

发表于 2019-12-3 01:17:03 | 显示全部楼层
楼主发贴辛苦了,谢谢楼主分享!我觉得蓝光电影网是注册对了!
回复 支持 反对

使用道具 举报

发表于 2019-12-3 07:38:15 | 显示全部楼层

楼主太厉害了!楼主,电影应该很好看我觉得蓝光电影网真是个好地方!
回复 支持 反对

使用道具 举报

发表于 2019-12-3 10:09:17 | 显示全部楼层
楼主发贴辛苦了,谢谢楼主分享!我觉得蓝光电影网是注册
回复 支持 反对

使用道具 举报

发表于 2019-12-3 17:30:16 | 显示全部楼层
楼主发贴辛苦了,谢谢楼主分享!我觉得蓝光电影网是注册
回复 支持 反对

使用道具 举报

发表于 2019-12-5 09:24:40 | 显示全部楼层
谢谢楼主分享!
回复 支持 反对

使用道具 举报

发表于 3 天前 | 显示全部楼层

楼主太厉害了!楼主,电影应该很好看我觉得蓝光电影网真是个好地方!
回复 支持 反对

使用道具 举报

懒得打字嘛,点击右侧快捷回复 【右侧内容,后台自定义】
您需要登录后才可以回帖 登录 | 立即加入

本版积分规则

现在加入蓝光电影网,注册一个账号
上个主题 下个主题 快速回复 收藏帖子 返回列表 客服中心 搜索

QQ| 手机版|小黑屋| 蓝光电影网 |网站地图 

Copyright © 2015-2019 Comsenz Inc.  Template by 蓝光电影论坛 All Rights Reserved.

Powered by 蓝光电影网 X3.4

特别声明:本站所有资源均由网上收集而来,版权归原影音公司所有,如果侵犯了你的权益,请通知我们,我们会及时删除侵权内容.

快速回复 返回顶部 返回列表