找回密码

蓝光电影网

查看: 138|回复: 6

[REMUX.HEVC] 逍遥骑士 Easy.Rider.1969.2160p.BluRay.REMUX.HEVC.DTS-HD.MA.5.1-FGT 48.73GB

[复制链接]

 成长值: 23620

发表于 2019-12-2 20:53:12 | 显示全部楼层 |阅读模式
逍遥骑士 Easy.Rider.1969.2160p.BluRay.REMUX.HEVC.DTS-HD.MA.5.1-FGT 48.73GB-1.png

译  名 逍遥骑士
片  名 Easy Rider
年  代 1969
产  地 美国
类  别 剧情
语  言 英语 / 西班牙语
上映日期 1969-05-08
IMDb评分  7.3/10 from 92753 users
IMDb链接  https://www.imdb.com/title/tt0064276
豆瓣评分 8.4/10 from 13486 users
豆瓣链接 https://movie.douban.com/subject/1297646/
片  长 95 分钟
导  演 Dennis Hopper
编  剧 Peter Fonda / Dennis Hopper / Terry Southern
主  演 Peter Fonda
       Dennis Hopper
       Jack Nicholson


标  签 美国 | 公路电影 | 公路 | 公路片 | 美国电影 | 摇滚 | 逍遥骑士 | DennisHopper

简  介  

  比利(丹尼斯·霍珀 Dennis Hopper 饰)和怀特(彼得·方达 Peter Fonda 饰)用一次毒品交易的钱骑着他们的机车上路了,他们的目的地,是新奥尔良的狂欢节。在路上,他们经过了离群索居的波西米亚人群落,短暂逗留的数天里目睹了他们自由放浪但也贫穷困苦的生活。在德克萨斯州,他们仅因为行为举止诡异就被警察关进了监狱,在那里,他们遇见了律师汉森(杰克·尼科尔森 Jack Nicholson 饰),汉森帮助他们逃离了牢狱之灾,他们怂恿汉森同他们一起上路。抵挡不住内心的骚动,汉森同意了。三人来到一个保守的小镇,在那里受尽了居民的白眼。不受欢迎的三人只得露宿荒野,夜里,当地的居民乔装袭击了他们,汉森被打死。比利和怀特虽然震惊,但这一切都没能阻止他们前进的脚步。到达目的地的两人并没有感到喜悦,有的只是无尽的空虚,沮丧的两人打道回府,但令人意外的是,一个卡车司机和他的双杆猎枪使得他们的行程截然而止。
  这是影史上最伟大的公路电影,也是为数众多的公路电影的鼻祖。

获奖情况  

  第42届奥斯卡金像奖(1970)
  最佳男配角(提名) 杰克·尼科尔森
  最佳原创剧本(提名) 丹尼斯·霍珀 / 特里·索泽恩 / 彼得·方达

  第22届戛纳电影节(1969)
  主竞赛单元 金棕榈奖(提名) 丹尼斯·霍珀
  最佳首作 丹尼斯·霍珀
  1. Video
  2. ID                                       : 1
  3. Format                                   : HEVC
  4. Format/Info                              : High Efficiency Video Coding
  5. Format profile                           : Main [email protected]@High
  6. HDR format                               : SMPTE ST 2086, HDR10 compatible
  7. Codec ID                                 : V_MPEGH/ISO/HEVC
  8. Duration                                 : 1 h 35 min
  9. Bit rate                                 : 53.5 Mb/s
  10. Width                                    : 3 840 pixels
  11. Height                                   : 2 160 pixels
  12. Display aspect ratio                     : 16:9
  13. Frame rate mode                          : Constant
  14. Frame rate                               : 23.976 (24000/1001) FPS
  15. Color space                              : YUV
  16. Chroma subsampling                       : 4:2:0 (Type 2)
  17. Bit depth                                : 10 bits
  18. Bits/(Pixel*Frame)                       : 0.269
  19. Stream size                              : 35.7 GiB (73%)
  20. Title                                    : Easy.Rider.1969.2160p.BluRay.REMUX.HEVC.DTS-HD.MA.5.1-FGT
  21. Language                                 : English
  22. Default                                  : No
  23. Forced                                   : No
  24. Color range                              : Limited
  25. Color primaries                          : BT.2020
  26. Transfer characteristics                 : PQ
  27. Matrix coefficients                      : BT.2020 non-constant
  28. Mastering display color primaries        : Display P3
  29. Mastering display luminance              : min: 0.0050 cd/m2, max: 4000 cd/m2
  30. Maximum Content Light Level              : 3991 cd/m2
  31. Maximum Frame-Average Light Level        : 396 cd/m2

  32. Audio #1
  33. ID                                       : 2
  34. Format                                   : DTS XLL
  35. Format/Info                              : Digital Theater Systems
  36. Commercial name                          : DTS-HD Master Audio
  37. Codec ID                                 : A_DTS
  38. Duration                                 : 1 h 35 min
  39. Bit rate mode                            : Variable
  40. Bit rate                                 : 1 884 kb/s
  41. Channel(s)                               : 6 channels
  42. Channel layout                           : C L R Ls Rs LFE
  43. Sampling rate                            : 48.0 kHz
  44. Frame rate                               : 93.750 FPS (512 SPF)
  45. Bit depth                                : 16 bits
  46. Compression mode                         : Lossless
  47. Stream size                              : 1.26 GiB (3%)
  48. Title                                    : Easy.Rider.1969.2160p.BluRay.REMUX.HEVC.DTS-HD.MA.5.1-FGT
  49. Language                                 : English
  50. Default                                  : Yes
  51. Forced                                   : No

  52. Audio #2
  53. ID                                       : 3
  54. Format                                   : DTS XLL
  55. Format/Info                              : Digital Theater Systems
  56. Commercial name                          : DTS-HD Master Audio
  57. Codec ID                                 : A_DTS
  58. Duration                                 : 1 h 35 min
  59. Bit rate mode                            : Variable
  60. Bit rate                                 : 1 563 kb/s
  61. Channel(s)                               : 2 channels
  62. Channel layout                           : L R
  63. Sampling rate                            : 48.0 kHz
  64. Frame rate                               : 93.750 FPS (512 SPF)
  65. Bit depth                                : 16 bits
  66. Compression mode                         : Lossless
  67. Stream size                              : 1.04 GiB (2%)
  68. Title                                    : Easy.Rider.1969.2160p.BluRay.REMUX.HEVC.DTS-HD.MA.5.1-FGT
  69. Language                                 : English
  70. Default                                  : No
  71. Forced                                   : No

  72. Audio #3
  73. ID                                       : 4
  74. Format                                   : AC-3
  75. Format/Info                              : Audio Coding 3
  76. Commercial name                          : Dolby Digital
  77. Codec ID                                 : A_AC3
  78. Duration                                 : 1 h 35 min
  79. Bit rate mode                            : Constant
  80. Bit rate                                 : 640 kb/s
  81. Channel(s)                               : 6 channels
  82. Channel layout                           : L R C LFE Ls Rs
  83. Sampling rate                            : 48.0 kHz
  84. Frame rate                               : 31.250 FPS (1536 SPF)
  85. Bit depth                                : 16 bits
  86. Compression mode                         : Lossy
  87. Stream size                              : 437 MiB (1%)
  88. Title                                    : Easy.Rider.1969.2160p.BluRay.REMUX.HEVC.DTS-HD.MA.5.1-FGT
  89. Language                                 : Czech
  90. Service kind                             : Complete Main
  91. Default                                  : No
  92. Forced                                   : No

  93. Audio #4
  94. ID                                       : 5
  95. Format                                   : DTS XLL
  96. Format/Info                              : Digital Theater Systems
  97. Commercial name                          : DTS-HD Master Audio
  98. Codec ID                                 : A_DTS
  99. Duration                                 : 1 h 35 min
  100. Bit rate mode                            : Variable
  101. Bit rate                                 : 2 166 kb/s
  102. Channel(s)                               : 6 channels
  103. Channel layout                           : C L R Ls Rs LFE
  104. Sampling rate                            : 48.0 kHz
  105. Frame rate                               : 93.750 FPS (512 SPF)
  106. Bit depth                                : 16 bits
  107. Compression mode                         : Lossless
  108. Stream size                              : 1.45 GiB (3%)
  109. Title                                    : Easy.Rider.1969.2160p.BluRay.REMUX.HEVC.DTS-HD.MA.5.1-FGT
  110. Language                                 : French
  111. Default                                  : No
  112. Forced                                   : No

  113. Audio #5
  114. ID                                       : 6
  115. Format                                   : DTS XLL
  116. Format/Info                              : Digital Theater Systems
  117. Commercial name                          : DTS-HD Master Audio
  118. Codec ID                                 : A_DTS
  119. Duration                                 : 1 h 35 min
  120. Bit rate mode                            : Variable
  121. Bit rate                                 : 2 171 kb/s
  122. Channel(s)                               : 6 channels
  123. Channel layout                           : C L R Ls Rs LFE
  124. Sampling rate                            : 48.0 kHz
  125. Frame rate                               : 93.750 FPS (512 SPF)
  126. Bit depth                                : 16 bits
  127. Compression mode                         : Lossless
  128. Stream size                              : 1.45 GiB (3%)
  129. Title                                    : Easy.Rider.1969.2160p.BluRay.REMUX.HEVC.DTS-HD.MA.5.1-FGT
  130. Language                                 : German
  131. Default                                  : No
  132. Forced                                   : No

  133. Audio #6
  134. ID                                       : 7
  135. Format                                   : AC-3
  136. Format/Info                              : Audio Coding 3
  137. Commercial name                          : Dolby Digital
  138. Codec ID                                 : A_AC3
  139. Duration                                 : 1 h 35 min
  140. Bit rate mode                            : Constant
  141. Bit rate                                 : 640 kb/s
  142. Channel(s)                               : 6 channels
  143. Channel layout                           : L R C LFE Ls Rs
  144. Sampling rate                            : 48.0 kHz
  145. Frame rate                               : 31.250 FPS (1536 SPF)
  146. Bit depth                                : 16 bits
  147. Compression mode                         : Lossy
  148. Stream size                              : 437 MiB (1%)
  149. Title                                    : Easy.Rider.1969.2160p.BluRay.REMUX.HEVC.DTS-HD.MA.5.1-FGT
  150. Language                                 : Hungarian
  151. Service kind                             : Complete Main
  152. Default                                  : No
  153. Forced                                   : No

  154. Audio #7
  155. ID                                       : 8
  156. Format                                   : DTS XLL
  157. Format/Info                              : Digital Theater Systems
  158. Commercial name                          : DTS-HD Master Audio
  159. Codec ID                                 : A_DTS
  160. Duration                                 : 1 h 35 min
  161. Bit rate mode                            : Variable
  162. Bit rate                                 : 2 172 kb/s
  163. Channel(s)                               : 6 channels
  164. Channel layout                           : C L R Ls Rs LFE
  165. Sampling rate                            : 48.0 kHz
  166. Frame rate                               : 93.750 FPS (512 SPF)
  167. Bit depth                                : 16 bits
  168. Compression mode                         : Lossless
  169. Stream size                              : 1.45 GiB (3%)
  170. Title                                    : Easy.Rider.1969.2160p.BluRay.REMUX.HEVC.DTS-HD.MA.5.1-FGT
  171. Language                                 : Italian
  172. Default                                  : No
  173. Forced                                   : No

  174. Audio #8
  175. ID                                       : 9
  176. Format                                   : DTS XLL
  177. Format/Info                              : Digital Theater Systems
  178. Commercial name                          : DTS-HD Master Audio
  179. Codec ID                                 : A_DTS
  180. Duration                                 : 1 h 35 min
  181. Bit rate mode                            : Variable
  182. Bit rate                                 : 2 158 kb/s
  183. Channel(s)                               : 6 channels
  184. Channel layout                           : C L R Ls Rs LFE
  185. Sampling rate                            : 48.0 kHz
  186. Frame rate                               : 93.750 FPS (512 SPF)
  187. Bit depth                                : 16 bits
  188. Compression mode                         : Lossless
  189. Stream size                              : 1.44 GiB (3%)
  190. Title                                    : Easy.Rider.1969.2160p.BluRay.REMUX.HEVC.DTS-HD.MA.5.1-FGT
  191. Language                                 : Japanese
  192. Default                                  : No
  193. Forced                                   : No

  194. Audio #9
  195. ID                                       : 10
  196. Format                                   : AC-3
  197. Format/Info                              : Audio Coding 3
  198. Commercial name                          : Dolby Digital
  199. Codec ID                                 : A_AC3
  200. Duration                                 : 1 h 35 min
  201. Bit rate mode                            : Constant
  202. Bit rate                                 : 640 kb/s
  203. Channel(s)                               : 6 channels
  204. Channel layout                           : L R C LFE Ls Rs
  205. Sampling rate                            : 48.0 kHz
  206. Frame rate                               : 31.250 FPS (1536 SPF)
  207. Bit depth                                : 16 bits
  208. Compression mode                         : Lossy
  209. Stream size                              : 437 MiB (1%)
  210. Title                                    : Easy.Rider.1969.2160p.BluRay.REMUX.HEVC.DTS-HD.MA.5.1-FGT
  211. Language                                 : Polish
  212. Service kind                             : Complete Main
  213. Default                                  : No
  214. Forced                                   : No

  215. Audio #10
  216. ID                                       : 11
  217. Format                                   : DTS XLL
  218. Format/Info                              : Digital Theater Systems
  219. Commercial name                          : DTS-HD Master Audio
  220. Codec ID                                 : A_DTS
  221. Duration                                 : 1 h 35 min
  222. Bit rate mode                            : Variable
  223. Bit rate                                 : 2 257 kb/s
  224. Channel(s)                               : 6 channels
  225. Channel layout                           : C L R Ls Rs LFE
  226. Sampling rate                            : 48.0 kHz
  227. Frame rate                               : 93.750 FPS (512 SPF)
  228. Bit depth                                : 16 bits
  229. Compression mode                         : Lossless
  230. Stream size                              : 1.51 GiB (3%)
  231. Title                                    : Easy.Rider.1969.2160p.BluRay.REMUX.HEVC.DTS-HD.MA.5.1-FGT
  232. Language                                 : Portuguese
  233. Default                                  : No
  234. Forced                                   : No

  235. Audio #11
  236. ID                                       : 12
  237. Format                                   : AC-3
  238. Format/Info                              : Audio Coding 3
  239. Commercial name                          : Dolby Digital
  240. Codec ID                                 : A_AC3
  241. Duration                                 : 1 h 35 min
  242. Bit rate mode                            : Constant
  243. Bit rate                                 : 192 kb/s
  244. Channel(s)                               : 2 channels
  245. Channel layout                           : L R
  246. Sampling rate                            : 48.0 kHz
  247. Frame rate                               : 31.250 FPS (1536 SPF)
  248. Bit depth                                : 16 bits
  249. Compression mode                         : Lossy
  250. Stream size                              : 131 MiB (0%)
  251. Title                                    : Easy.Rider.1969.2160p.BluRay.REMUX.HEVC.DTS-HD.MA.5.1-FGT
  252. Language                                 : Russian
  253. Service kind                             : Complete Main
  254. Default                                  : No
  255. Forced                                   : No

  256. Audio #12
  257. ID                                       : 13
  258. Format                                   : DTS XLL
  259. Format/Info                              : Digital Theater Systems
  260. Commercial name                          : DTS-HD Master Audio
  261. Codec ID                                 : A_DTS
  262. Duration                                 : 1 h 35 min
  263. Bit rate mode                            : Variable
  264. Bit rate                                 : 2 175 kb/s
  265. Channel(s)                               : 6 channels
  266. Channel layout                           : C L R Ls Rs LFE
  267. Sampling rate                            : 48.0 kHz
  268. Frame rate                               : 93.750 FPS (512 SPF)
  269. Bit depth                                : 16 bits
  270. Compression mode                         : Lossless
  271. Stream size                              : 1.45 GiB (3%)
  272. Title                                    : Easy.Rider.1969.2160p.BluRay.REMUX.HEVC.DTS-HD.MA.5.1-FGT
  273. Language                                 : Spanish
  274. Default                                  : No
  275. Forced                                   : No

  276. Audio #13
  277. ID                                       : 14
  278. Format                                   : AC-3
  279. Format/Info                              : Audio Coding 3
  280. Commercial name                          : Dolby Digital
  281. Codec ID                                 : A_AC3
  282. Duration                                 : 1 h 35 min
  283. Bit rate mode                            : Constant
  284. Bit rate                                 : 640 kb/s
  285. Channel(s)                               : 6 channels
  286. Channel layout                           : L R C LFE Ls Rs
  287. Sampling rate                            : 48.0 kHz
  288. Frame rate                               : 31.250 FPS (1536 SPF)
  289. Bit depth                                : 16 bits
  290. Compression mode                         : Lossy
  291. Stream size                              : 437 MiB (1%)
  292. Title                                    : Easy.Rider.1969.2160p.BluRay.REMUX.HEVC.DTS-HD.MA.5.1-FGT
  293. Language                                 : Spanish
  294. Service kind                             : Complete Main
  295. Default                                  : No
  296. Forced                                   : No

  297. Text #1
  298. ID                                       : 15
  299. Format                                   : UTF-8
  300. Codec ID                                 : S_TEXT/UTF8
  301. Codec ID/Info                            : UTF-8 Plain Text
  302. Duration                                 : 1 h 29 min
  303. Bit rate                                 : 49 b/s
  304. Count of elements                        : 904
  305. Stream size                              : 32.3 KiB (0%)
  306. Title                                    : English-SRT
  307. Language                                 : English
  308. Default                                  : Yes
  309. Forced                                   : No

  310. Text #2
  311. ID                                       : 16
  312. Format                                   : UTF-8
  313. Codec ID                                 : S_TEXT/UTF8
  314. Codec ID/Info                            : UTF-8 Plain Text
  315. Duration                                 : 1 h 35 min
  316. Bit rate                                 : 50 b/s
  317. Count of elements                        : 1002
  318. Stream size                              : 35.1 KiB (0%)
  319. Title                                    : English-SDH-SRT
  320. Language                                 : English
  321. Default                                  : No
  322. Forced                                   : No

  323. Text #3
  324. ID                                       : 17
  325. Format                                   : PGS
  326. Muxing mode                              : zlib
  327. Codec ID                                 : S_HDMV/PGS
  328. Codec ID/Info                            : Picture based subtitle format used on BDs/HD-DVDs
  329. Duration                                 : 1 h 23 min
  330. Bit rate                                 : 21.3 kb/s
  331. Count of elements                        : 1390
  332. Stream size                              : 12.7 MiB (0%)
  333. Title                                    : English-PGS
  334. Language                                 : English
  335. Default                                  : No
  336. Forced                                   : No

  337. Text #4
  338. ID                                       : 18
  339. Format                                   : PGS
  340. Muxing mode                              : zlib
  341. Codec ID                                 : S_HDMV/PGS
  342. Codec ID/Info                            : Picture based subtitle format used on BDs/HD-DVDs
  343. Duration                                 : 1 h 23 min
  344. Bit rate                                 : 21.3 kb/s
  345. Count of elements                        : 1390
  346. Stream size                              : 12.7 MiB (0%)
  347. Title                                    : English-PGS
  348. Language                                 : English
  349. Default                                  : No
  350. Forced                                   : No

  351. Text #5
  352. ID                                       : 19
  353. Format                                   : PGS
  354. Muxing mode                              : zlib
  355. Codec ID                                 : S_HDMV/PGS
  356. Codec ID/Info                            : Picture based subtitle format used on BDs/HD-DVDs
  357. Duration                                 : 1 h 35 min
  358. Bit rate                                 : 27.9 kb/s
  359. Count of elements                        : 2004
  360. Stream size                              : 19.0 MiB (0%)
  361. Title                                    : English-SDH-PGS
  362. Language                                 : English
  363. Default                                  : No
  364. Forced                                   : No

  365. Text #6
  366. ID                                       : 20
  367. Format                                   : PGS
  368. Muxing mode                              : zlib
  369. Codec ID                                 : S_HDMV/PGS
  370. Codec ID/Info                            : Picture based subtitle format used on BDs/HD-DVDs
  371. Duration                                 : 1 h 23 min
  372. Bit rate                                 : 11.0 kb/s
  373. Count of elements                        : 1370
  374. Stream size                              : 6.57 MiB (0%)
  375. Title                                    : Arabic-PGS
  376. Language                                 : Arabic
  377. Default                                  : No
  378. Forced                                   : No

  379. Text #7
  380. ID                                       : 21
  381. Format                                   : PGS
  382. Muxing mode                              : zlib
  383. Codec ID                                 : S_HDMV/PGS
  384. Codec ID/Info                            : Picture based subtitle format used on BDs/HD-DVDs
  385. Duration                                 : 1 h 32 min
  386. Bit rate                                 : 13.5 kb/s
  387. Count of elements                        : 910
  388. Stream size                              : 8.93 MiB (0%)
  389. Title                                    : Chinese-PGS
  390. Language                                 : Chinese
  391. Default                                  : No
  392. Forced                                   : No

  393. Text #8
  394. ID                                       : 22
  395. Format                                   : PGS
  396. Muxing mode                              : zlib
  397. Codec ID                                 : S_HDMV/PGS
  398. Codec ID/Info                            : Picture based subtitle format used on BDs/HD-DVDs
  399. Duration                                 : 1 h 32 min
  400. Bit rate                                 : 15.3 kb/s
  401. Count of elements                        : 1410
  402. Stream size                              : 10.1 MiB (0%)
  403. Title                                    : Chinese-PGS
  404. Language                                 : Chinese
  405. Default                                  : No
  406. Forced                                   : No

  407. Text #9
  408. ID                                       : 23
  409. Format                                   : PGS
  410. Muxing mode                              : zlib
  411. Codec ID                                 : S_HDMV/PGS
  412. Codec ID/Info                            : Picture based subtitle format used on BDs/HD-DVDs
  413. Duration                                 : 1 h 23 min
  414. Bit rate                                 : 17.8 kb/s
  415. Count of elements                        : 1334
  416. Stream size                              : 10.6 MiB (0%)
  417. Title                                    : Croatian-PGS
  418. Language                                 : Croatian
  419. Default                                  : No
  420. Forced                                   : No

  421. Text #10
  422. ID                                       : 24
  423. Format                                   : PGS
  424. Muxing mode                              : zlib
  425. Codec ID                                 : S_HDMV/PGS
  426. Codec ID/Info                            : Picture based subtitle format used on BDs/HD-DVDs
  427. Duration                                 : 1 h 23 min
  428. Bit rate                                 : 17.2 kb/s
  429. Count of elements                        : 1344
  430. Stream size                              : 10.3 MiB (0%)
  431. Title                                    : Czech-PGS
  432. Language                                 : Czech
  433. Default                                  : No
  434. Forced                                   : No

  435. Text #11
  436. ID                                       : 25
  437. Format                                   : PGS
  438. Muxing mode                              : zlib
  439. Codec ID                                 : S_HDMV/PGS
  440. Codec ID/Info                            : Picture based subtitle format used on BDs/HD-DVDs
  441. Duration                                 : 35 min 7 s
  442. Bit rate                                 : 97 b/s
  443. Count of elements                        : 6
  444. Stream size                              : 25.0 KiB (0%)
  445. Title                                    : Czech-FORCED-PGS
  446. Language                                 : Czech
  447. Default                                  : No
  448. Forced                                   : No

  449. Text #12
  450. ID                                       : 26
  451. Format                                   : PGS
  452. Muxing mode                              : zlib
  453. Codec ID                                 : S_HDMV/PGS
  454. Codec ID/Info                            : Picture based subtitle format used on BDs/HD-DVDs
  455. Duration                                 : 1 h 23 min
  456. Bit rate                                 : 18.4 kb/s
  457. Count of elements                        : 1026
  458. Stream size                              : 11.0 MiB (0%)
  459. Title                                    : Danish-PGS
  460. Language                                 : Danish
  461. Default                                  : No
  462. Forced                                   : No

  463. Text #13
  464. ID                                       : 27
  465. Format                                   : PGS
  466. Muxing mode                              : zlib
  467. Codec ID                                 : S_HDMV/PGS
  468. Codec ID/Info                            : Picture based subtitle format used on BDs/HD-DVDs
  469. Duration                                 : 1 h 23 min
  470. Bit rate                                 : 19.2 kb/s
  471. Count of elements                        : 1334
  472. Stream size                              : 11.5 MiB (0%)
  473. Title                                    : Dutch-PGS
  474. Language                                 : Dutch
  475. Default                                  : No
  476. Forced                                   : No

  477. Text #14
  478. ID                                       : 28
  479. Format                                   : PGS
  480. Muxing mode                              : zlib
  481. Codec ID                                 : S_HDMV/PGS
  482. Codec ID/Info                            : Picture based subtitle format used on BDs/HD-DVDs
  483. Duration                                 : 1 h 25 min
  484. Bit rate                                 : 18.1 kb/s
  485. Count of elements                        : 1056
  486. Stream size                              : 11.1 MiB (0%)
  487. Title                                    : Finnish-PGS
  488. Language                                 : Finnish
  489. Default                                  : No
  490. Forced                                   : No

  491. Text #15
  492. ID                                       : 29
  493. Format                                   : PGS
  494. Muxing mode                              : zlib
  495. Codec ID                                 : S_HDMV/PGS
  496. Codec ID/Info                            : Picture based subtitle format used on BDs/HD-DVDs
  497. Duration                                 : 1 h 27 min
  498. Bit rate                                 : 18.1 kb/s
  499. Count of elements                        : 1364
  500. Stream size                              : 11.3 MiB (0%)
  501. Title                                    : French-PGS
  502. Language                                 : French
  503. Default                                  : No
  504. Forced                                   : No

  505. Text #16
  506. ID                                       : 30
  507. Format                                   : PGS
  508. Muxing mode                              : zlib
  509. Codec ID                                 : S_HDMV/PGS
  510. Codec ID/Info                            : Picture based subtitle format used on BDs/HD-DVDs
  511. Duration                                 : 1 h 27 min
  512. Bit rate                                 : 176 b/s
  513. Count of elements                        : 14
  514. Stream size                              : 113 KiB (0%)
  515. Title                                    : French-FORCED-PGS
  516. Language                                 : French
  517. Default                                  : No
  518. Forced                                   : No

  519. Text #17
  520. ID                                       : 31
  521. Format                                   : PGS
  522. Muxing mode                              : zlib
  523. Codec ID                                 : S_HDMV/PGS
  524. Codec ID/Info                            : Picture based subtitle format used on BDs/HD-DVDs
  525. Duration                                 : 1 h 23 min
  526. Bit rate                                 : 22.4 kb/s
  527. Count of elements                        : 1348
  528. Stream size                              : 13.4 MiB (0%)
  529. Title                                    : German-PGS
  530. Language                                 : German
  531. Default                                  : No
  532. Forced                                   : No

  533. Text #18
  534. ID                                       : 32
  535. Format                                   : PGS
  536. Muxing mode                              : zlib
  537. Codec ID                                 : S_HDMV/PGS
  538. Codec ID/Info                            : Picture based subtitle format used on BDs/HD-DVDs
  539. Duration                                 : 1 h 7 min
  540. Bit rate                                 : 147 b/s
  541. Count of elements                        : 10
  542. Stream size                              : 73.1 KiB (0%)
  543. Title                                    : German-FORCED-PGS
  544. Language                                 : German
  545. Default                                  : No
  546. Forced                                   : No

  547. Text #19
  548. ID                                       : 33
  549. Format                                   : PGS
  550. Muxing mode                              : zlib
  551. Codec ID                                 : S_HDMV/PGS
  552. Codec ID/Info                            : Picture based subtitle format used on BDs/HD-DVDs
  553. Duration                                 : 1 h 33 min
  554. Bit rate                                 : 15.5 kb/s
  555. Count of elements                        : 1104
  556. Stream size                              : 10.4 MiB (0%)
  557. Title                                    : Greek-PGS
  558. Language                                 : Greek
  559. Default                                  : No
  560. Forced                                   : No

  561. Text #20
  562. ID                                       : 34
  563. Format                                   : PGS
  564. Muxing mode                              : zlib
  565. Codec ID                                 : S_HDMV/PGS
  566. Codec ID/Info                            : Picture based subtitle format used on BDs/HD-DVDs
  567. Duration                                 : 1 h 25 min
  568. Bit rate                                 : 18.8 kb/s
  569. Count of elements                        : 1352
  570. Stream size                              : 11.5 MiB (0%)
  571. Title                                    : Hungarian-PGS
  572. Language                                 : Hungarian
  573. Default                                  : No
  574. Forced                                   : No

  575. Text #21
  576. ID                                       : 35
  577. Format                                   : PGS
  578. Muxing mode                              : zlib
  579. Codec ID                                 : S_HDMV/PGS
  580. Codec ID/Info                            : Picture based subtitle format used on BDs/HD-DVDs
  581. Duration                                 : 1 h 23 min
  582. Bit rate                                 : 20.2 kb/s
  583. Count of elements                        : 1344
  584. Stream size                              : 12.1 MiB (0%)
  585. Title                                    : Icelandic-PGS
  586. Language                                 : Icelandic
  587. Default                                  : No
  588. Forced                                   : No

  589. Text #22
  590. ID                                       : 36
  591. Format                                   : PGS
  592. Muxing mode                              : zlib
  593. Codec ID                                 : S_HDMV/PGS
  594. Codec ID/Info                            : Picture based subtitle format used on BDs/HD-DVDs
  595. Duration                                 : 1 h 23 min
  596. Bit rate                                 : 21.2 kb/s
  597. Count of elements                        : 1342
  598. Stream size                              : 12.7 MiB (0%)
  599. Title                                    : Italian-PGS
  600. Language                                 : Italian
  601. Default                                  : No
  602. Forced                                   : No

  603. Text #23
  604. ID                                       : 37
  605. Format                                   : PGS
  606. Muxing mode                              : zlib
  607. Codec ID                                 : S_HDMV/PGS
  608. Codec ID/Info                            : Picture based subtitle format used on BDs/HD-DVDs
  609. Duration                                 : 1 h 7 min
  610. Bit rate                                 : 160 b/s
  611. Count of elements                        : 10
  612. Stream size                              : 80.0 KiB (0%)
  613. Title                                    : Italian-FORCED-PGS
  614. Language                                 : Italian
  615. Default                                  : No
  616. Forced                                   : No

  617. Text #24
  618. ID                                       : 38
  619. Format                                   : PGS
  620. Muxing mode                              : zlib
  621. Codec ID                                 : S_HDMV/PGS
  622. Codec ID/Info                            : Picture based subtitle format used on BDs/HD-DVDs
  623. Duration                                 : 1 h 33 min
  624. Bit rate                                 : 12.0 kb/s
  625. Count of elements                        : 1114
  626. Stream size                              : 7.99 MiB (0%)
  627. Title                                    : Japanese-PGS
  628. Language                                 : Japanese
  629. Default                                  : No
  630. Forced                                   : No

  631. Text #25
  632. ID                                       : 39
  633. Format                                   : PGS
  634. Muxing mode                              : zlib
  635. Codec ID                                 : S_HDMV/PGS
  636. Codec ID/Info                            : Picture based subtitle format used on BDs/HD-DVDs
  637. Duration                                 : 1 h 32 min
  638. Bit rate                                 : 11.7 kb/s
  639. Count of elements                        : 1392
  640. Stream size                              : 7.81 MiB (0%)
  641. Title                                    : Korean-PGS
  642. Language                                 : Korean
  643. Default                                  : No
  644. Forced                                   : No

  645. Text #26
  646. ID                                       : 40
  647. Format                                   : PGS
  648. Muxing mode                              : zlib
  649. Codec ID                                 : S_HDMV/PGS
  650. Codec ID/Info                            : Picture based subtitle format used on BDs/HD-DVDs
  651. Duration                                 : 1 h 32 min
  652. Bit rate                                 : 16.0 kb/s
  653. Count of elements                        : 1112
  654. Stream size                              : 10.6 MiB (0%)
  655. Title                                    : Norwegian-PGS
  656. Language                                 : Norwegian
  657. Default                                  : No
  658. Forced                                   : No

  659. Text #27
  660. ID                                       : 41
  661. Format                                   : PGS
  662. Muxing mode                              : zlib
  663. Codec ID                                 : S_HDMV/PGS
  664. Codec ID/Info                            : Picture based subtitle format used on BDs/HD-DVDs
  665. Duration                                 : 1 h 23 min
  666. Bit rate                                 : 16.2 kb/s
  667. Count of elements                        : 1316
  668. Stream size                              : 9.67 MiB (0%)
  669. Title                                    : Polish-PGS
  670. Language                                 : Polish
  671. Default                                  : No
  672. Forced                                   : No

  673. Text #28
  674. ID                                       : 42
  675. Format                                   : PGS
  676. Muxing mode                              : zlib
  677. Codec ID                                 : S_HDMV/PGS
  678. Codec ID/Info                            : Picture based subtitle format used on BDs/HD-DVDs
  679. Duration                                 : 1 h 25 min
  680. Bit rate                                 : 19.0 kb/s
  681. Count of elements                        : 1138
  682. Stream size                              : 11.6 MiB (0%)
  683. Title                                    : Portuguese-PGS
  684. Language                                 : Portuguese
  685. Default                                  : No
  686. Forced                                   : No

  687. Text #29
  688. ID                                       : 43
  689. Format                                   : PGS
  690. Muxing mode                              : zlib
  691. Codec ID                                 : S_HDMV/PGS
  692. Codec ID/Info                            : Picture based subtitle format used on BDs/HD-DVDs
  693. Duration                                 : 1 h 23 min
  694. Bit rate                                 : 17.2 kb/s
  695. Count of elements                        : 1344
  696. Stream size                              : 10.3 MiB (0%)
  697. Title                                    : Portuguese-PGS
  698. Language                                 : Portuguese
  699. Default                                  : No
  700. Forced                                   : No

  701. Text #30
  702. ID                                       : 44
  703. Format                                   : PGS
  704. Muxing mode                              : zlib
  705. Codec ID                                 : S_HDMV/PGS
  706. Codec ID/Info                            : Picture based subtitle format used on BDs/HD-DVDs
  707. Duration                                 : 1 h 34 min
  708. Bit rate                                 : 16.2 kb/s
  709. Count of elements                        : 1396
  710. Stream size                              : 11.0 MiB (0%)
  711. Title                                    : Slovak-PGS
  712. Language                                 : Slovak
  713. Default                                  : No
  714. Forced                                   : No

  715. Text #31
  716. ID                                       : 45
  717. Format                                   : PGS
  718. Muxing mode                              : zlib
  719. Codec ID                                 : S_HDMV/PGS
  720. Codec ID/Info                            : Picture based subtitle format used on BDs/HD-DVDs
  721. Duration                                 : 1 h 23 min
  722. Bit rate                                 : 16.0 kb/s
  723. Count of elements                        : 1334
  724. Stream size                              : 9.57 MiB (0%)
  725. Title                                    : Slovenian-PGS
  726. Language                                 : Slovenian
  727. Default                                  : No
  728. Forced                                   : No

  729. Text #32
  730. ID                                       : 46
  731. Format                                   : PGS
  732. Muxing mode                              : zlib
  733. Codec ID                                 : S_HDMV/PGS
  734. Codec ID/Info                            : Picture based subtitle format used on BDs/HD-DVDs
  735. Duration                                 : 1 h 25 min
  736. Bit rate                                 : 18.6 kb/s
  737. Count of elements                        : 1338
  738. Stream size                              : 11.4 MiB (0%)
  739. Title                                    : Spanish-PGS
  740. Language                                 : Spanish
  741. Default                                  : No
  742. Forced                                   : No

  743. Text #33
  744. ID                                       : 47
  745. Format                                   : PGS
  746. Muxing mode                              : zlib
  747. Codec ID                                 : S_HDMV/PGS
  748. Codec ID/Info                            : Picture based subtitle format used on BDs/HD-DVDs
  749. Duration                                 : 36 min 56 s
  750. Bit rate                                 : 172 b/s
  751. Count of elements                        : 8
  752. Stream size                              : 46.6 KiB (0%)
  753. Title                                    : Spanish-FORCED-PGS
  754. Language                                 : Spanish
  755. Default                                  : No
  756. Forced                                   : No

  757. Text #34
  758. ID                                       : 48
  759. Format                                   : PGS
  760. Muxing mode                              : zlib
  761. Codec ID                                 : S_HDMV/PGS
  762. Codec ID/Info                            : Picture based subtitle format used on BDs/HD-DVDs
  763. Duration                                 : 1 h 25 min
  764. Bit rate                                 : 21.7 kb/s
  765. Count of elements                        : 1390
  766. Stream size                              : 13.2 MiB (0%)
  767. Title                                    : Spanish-PGS
  768. Language                                 : Spanish
  769. Default                                  : No
  770. Forced                                   : No

  771. Text #35
  772. ID                                       : 49
  773. Format                                   : PGS
  774. Muxing mode                              : zlib
  775. Codec ID                                 : S_HDMV/PGS
  776. Codec ID/Info                            : Picture based subtitle format used on BDs/HD-DVDs
  777. Duration                                 : 1 h 25 min
  778. Bit rate                                 : 17.9 kb/s
  779. Count of elements                        : 1092
  780. Stream size                              : 10.9 MiB (0%)
  781. Title                                    : Swedish-PGS
  782. Language                                 : Swedish
  783. Default                                  : No
  784. Forced                                   : No

  785. Text #36
  786. ID                                       : 50
  787. Format                                   : PGS
  788. Muxing mode                              : zlib
  789. Codec ID                                 : S_HDMV/PGS
  790. Codec ID/Info                            : Picture based subtitle format used on BDs/HD-DVDs
  791. Duration                                 : 1 h 34 min
  792. Bit rate                                 : 14.4 kb/s
  793. Count of elements                        : 942
  794. Stream size                              : 9.73 MiB (0%)
  795. Title                                    : Thai-PGS
  796. Language                                 : Thai
  797. Default                                  : No
  798. Forced                                   : No

  799. Text #37
  800. ID                                       : 51
  801. Format                                   : PGS
  802. Muxing mode                              : zlib
  803. Codec ID                                 : S_HDMV/PGS
  804. Codec ID/Info                            : Picture based subtitle format used on BDs/HD-DVDs
  805. Duration                                 : 1 h 25 min
  806. Bit rate                                 : 18.6 kb/s
  807. Count of elements                        : 1350
  808. Stream size                              : 11.4 MiB (0%)
  809. Title                                    : Turkish-PGS
  810. Language                                 : Turkish
  811. Default                                  : No
  812. Forced                                   : No

  813. Text #38
  814. ID                                       : 52
  815. Format                                   : PGS
  816. Muxing mode                              : zlib
  817. Codec ID                                 : S_HDMV/PGS
  818. Codec ID/Info                            : Picture based subtitle format used on BDs/HD-DVDs
  819. Duration                                 : 1 h 29 min
  820. Bit rate                                 : 661 b/s
  821. Count of elements                        : 42
  822. Stream size                              : 432 KiB (0%)
  823. Title                                    : Japanese-FORCED-PGS
  824. Language                                 : Japanese
  825. Default                                  : No
  826. Forced                                   : No

  827. Menu
  828. 00:00:00.000                             : en:Chapter 01
  829. 00:10:11.402                             : en:Chapter 02
  830. 00:16:05.589                             : en:Chapter 03
  831. 00:19:42.848                             : en:Chapter 04
  832. 00:26:48.898                             : en:Chapter 05
  833. 00:31:40.565                             : en:Chapter 06
  834. 00:35:52.650                             : en:Chapter 07
  835. 00:43:05.040                             : en:Chapter 08
  836. 00:50:08.672                             : en:Chapter 09
  837. 00:54:22.217                             : en:Chapter 10
  838. 01:01:59.674                             : en:Chapter 11
  839. 01:09:34.545                             : en:Chapter 12
  840. 01:14:23.459                             : en:Chapter 13
  841. 01:20:17.604                             : en:Chapter 14
  842. 01:28:41.816                             : en:Chapter 15
  843. 01:32:03.351                             : en:Chapter 16
复制代码

逍遥骑士 Easy.Rider.1969.2160p.BluRay.REMUX.HEVC.DTS-HD.MA.5.1-FGT 48.73GB-2.png 逍遥骑士 Easy.Rider.1969.2160p.BluRay.REMUX.HEVC.DTS-HD.MA.5.1-FGT 48.73GB-3.png 逍遥骑士 Easy.Rider.1969.2160p.BluRay.REMUX.HEVC.DTS-HD.MA.5.1-FGT 48.73GB-1.png







回复

使用道具 举报

发表于 2019-12-3 08:28:40 | 显示全部楼层

这东西我收了!谢谢楼主!蓝光电影网真好!
回复 支持 反对

使用道具 举报

发表于 2019-12-3 08:49:24 | 显示全部楼层

既然你诚信诚意的推荐了,那我就勉为其难的看看吧!蓝光电影网不走平凡路。
回复 支持 反对

使用道具 举报

发表于 2019-12-3 09:15:14 | 显示全部楼层
谢谢发片。
回复

使用道具 举报

发表于 2019-12-3 13:10:22 | 显示全部楼层
楼主发贴辛苦了,谢谢楼主分享!我觉得蓝光电影网是注册对了!
回复 支持 反对

使用道具 举报

发表于 2019-12-3 18:48:35 | 显示全部楼层

楼主发贴辛苦了,谢谢楼主分享!我觉得蓝光电影网是注册对了!
回复 支持 反对

使用道具 举报

发表于 2019-12-3 18:49:44 | 显示全部楼层

楼主发贴辛苦了,谢谢楼主分享!我觉得蓝光电影网是注册对了!
回复 支持 反对

使用道具 举报

懒得打字嘛,点击右侧快捷回复 【右侧内容,后台自定义】
您需要登录后才可以回帖 登录 | 立即加入

本版积分规则

现在加入蓝光电影网,注册一个账号
上个主题 下个主题 快速回复 收藏帖子 返回列表 客服中心 搜索

QQ| 手机版|小黑屋| 蓝光电影网 |网站地图 

Copyright © 2015-2019 Comsenz Inc.  Template by 蓝光电影论坛 All Rights Reserved.

Powered by 蓝光电影网 X3.4

特别声明:本站所有资源均由网上收集而来,版权归原影音公司所有,如果侵犯了你的权益,请通知我们,我们会及时删除侵权内容.

快速回复 返回顶部 返回列表