找回密码

蓝光电影网

查看: 201|回复: 4

[8bit.SDR] 好莱坞往事 Once.Upon.a.Time.in.Hollywood.2019.2160p.BluRay.x264.8bit.SDR.DTS-HD.MA.7.1-SWTYBLZ 54.62GB

[复制链接]

 成长值: 23575

发表于 2019-11-30 22:08:26 | 显示全部楼层 |阅读模式
好莱坞往事 Once.Upon.a.Time.in.Hollywood.2019.2160p.BluRay.x264.8bit.SDR.DTS-HD.MA.7.1-SWTYBLZ 54.62GB-1.png

◎译  名 好莱坞往事 / Once Upon a Time in Hollywood / Once Upon a Time in… Hollywood / 从前,有个好莱坞...(台) / 从前,有个荷里活(港) / 好莱坞杀人事件 / 荷里活往事
◎片  名 Once Upon a Time... in Hollywood
◎年  代 2019
◎产  地 英国 / 美国 / 中国大陆
◎类  别 剧情 / 喜剧
◎语  言 英语
◎上映日期 2019(中国大陆) / 2019-05-21(戛纳电影节) / 2019-07-26(美国)
◎IMDb评分 8.0/10 from 228656 users
◎IMDb链接 https://www.imdb.com/title/tt7131622
◎豆瓣评分 7.5/10 from 16309 users
◎豆瓣链接 https://movie.douban.com/subject/27087724/
◎片  长 165分钟
◎导  演 昆汀·塔伦蒂诺 Quentin Tarantino
◎编  剧 昆汀·塔伦蒂诺 Quentin Tarantino
◎主  演 莱昂纳多·迪卡普里奥 Leonardo DiCaprio
      布拉德·皮特 Brad Pitt
      玛格特·罗比 Margot Robbie
      埃米尔·赫斯基 Emile Hirsch
      玛格丽特·库里 Margaret Qualley
      蒂莫西·奥利芬特 Timothy Olyphant
      茱莉亚·巴特斯 Julia Butters
      奥斯汀·巴特勒 Austin Butler
      达科塔·范宁 Dakota Fanning
      布鲁斯·邓恩 Bruce Dern
      麦克·莫 Mike Moh
      卢克·贝里 Luke Perry
      戴米恩·路易斯 Damian Lewis
      库尔特·拉塞尔 Kurt Russell
      阿尔·帕西诺 Al Pacino
      玛雅·霍克 Maya Hawke
      西德妮·斯维尼 Sydney Sweeney
      哈莉·奎恩·史密斯 Harley Quinn Smith
      达蒙·海瑞曼 Damon Herriman
      凯特·贝兰特 Kate Berlant
      洛伦扎·伊佐 Lorenza Izzo
      迈克尔·马德森 Michael Madsen
      拉莫·威利斯 Rumer Willis
      斯科特·麦克纳里 Scoot McNairy
      小克利夫顿·克林斯 Clifton Collins Jr.
      维多利亚·佩德雷蒂 Victoria Pedretti
      吕蓓卡·盖哈特 Rebecca Gayheart
      佐伊·贝尔 Zoe Bell
      莱斯利·贝加 Leslie Bega
      瑞贝卡·瑞滕豪斯 Rebecca Rittenhouse
      萨曼莎·罗宾森 Samantha Robinson
      莉娜·邓纳姆 Lena Dunham
      德瑞玛·沃克 Dreama Walker
      克鲁·古拉格 Clu Gulager
      丹妮拉·皮克 Daniela Pick
      布伦达·瓦卡罗 Brenda Vaccaro
      尼古拉斯·哈蒙德 Nicholas Hammond
      米奇·麦迪森 Mikey Madison
      詹姆斯·兰德里·赫伯特 James Landry Hébert
      妮可·加利西亚 Nichole Galicia
      麦迪逊·贝蒂 Madisen Beaty
      佩内洛普·卡普迪雅 Penelope Kapudija
      莫里斯·孔特 Maurice Compte
      科斯塔·罗宁 Costa Ronin
      卢·坦普尔 Lew Temple
      斯宾塞·加雷特 Spencer Garrett
      Brianna Joy Chomer
      奥玛·杜姆 Omar Doom
      娜塔莉·科恩 Natalie Cohen
      拉法尔·扎维鲁查 Rafal Zawierucha
      马尔科·罗德里格斯 Marco Rodríguez
      Kansas Skye
      维森特·拉雷斯卡 Vincent Laresca
      殷巴尔·阿米拉夫 Inbal Amirav
      拉蒙·弗兰克 Ramón Franco
      莫妮卡·斯塔吉丝 Monica Staggs
      克雷格·斯塔克 Craig Stark
      大卫·斯廷 David Steen
      朱丽叶·吉达 Juliette Kida
      埃迪·佩雷斯 Eddie Perez
      布蕾迪·拉多娜 Bridie Latona
      凯拉·拉多姆斯基 Kayla Radomski
      布里安娜·温 Breanna Wing
      Carolina Vargas
      Gary Private


◎标  签 美国 | 犯罪 | 剧情 | 2019 | 黑色幽默 | 惊悚 | 传记 | 真实事件改编

◎简  介

  故事在1969年瞬息万变的洛杉矶展开,在那个风起云涌的变革时代,嬉皮文化盛行,好莱坞大制片厂制度瓦解,新的好莱坞明星纷纷崛起。电视明星里克·道尔顿(莱昂纳多·迪卡普里奥 Leonardo DiCaprio饰)与他长期合作替身搭档克里夫·布斯(布拉德·皮特 Brad Pitt 饰)如何在逐渐陌生的娱乐圈里,找到自己的一席之地。他们正力图扬名电影圈,却发现这个行业早已不是他们想象的样子了…… 这是昆汀自编自导第9部影片,汇集星光闪闪的卡司与交错的情节,纪念好莱坞不再复返的黄金年代。

◎获奖情况

  第72届戛纳电影节(2019)
  主竞赛单元 金棕榈奖(提名) 昆汀·塔伦蒂诺

  第72届洛迦诺国际电影节(2019)
  Variety Piazza Grande Award(提名) 昆汀·塔伦蒂诺

  第7届美国化妆及发型设计工会奖(2020)
  电影类最佳年代戏化妆(提名)
  电影类最佳年代戏发型设计(提名)

  第5届豆瓣电影年度榜单(2018)
  最值得期待的外语电影(提名)
  1. Video
  2. ID : 1
  3. Format : AVC
  4. Format/Info : Advanced Video Codec
  5. Format profile : [email][email protected][/email]
  6. Format settings : CABAC / 5 Ref Frames
  7. Format settings, CABAC : Yes
  8. Format settings, Reference frames : 5 frames
  9. Codec ID : V_MPEG4/ISO/AVC
  10. Duration : 2 h 41 min
  11. Bit rate : 44.6 Mb/s
  12. Width : 3 840 pixels
  13. Height : 1 600 pixels
  14. Display aspect ratio : 2.40:1
  15. Frame rate mode : Constant
  16. Frame rate : 23.976 (24000/1001) FPS
  17. Color space : YUV
  18. Chroma subsampling : 4:2:0
  19. Bit depth : 8 bits
  20. Scan type : Progressive
  21. Bits/(Pixel*Frame) : 0.303
  22. Stream size : 50.3 GiB (92%)
  23. Title : Once.Upon.a.Time.in.Hollywood.2019.2160p.BluRay.x264.8bit.SDR.DTS-HD.MA.7.1-SWTYBLZ
  24. Writing library : x264 core 157 r2935 545de2f
  25. Encoding settings : cabac=1 / ref=5 / deblock=1:-1:-1 / analyse=0x3:0x113 / me=umh / subme=10 / psy=1 / psy_rd=1.00:0.15 / mixed_ref=1 / me_range=48 / chroma_me=1 / trellis=2 / 8x8dct=1 / cqm=0 / deadzone=21,11 / fast_pskip=1 / chroma_qp_offset=-3 / threads=48 / lookahead_threads=4 / sliced_threads=0 / nr=0 / decimate=0 / interlaced=0 / bluray_compat=0 / constrained_intra=0 / bframes=3 / b_pyramid=2 / b_adapt=2 / b_bias=0 / direct=3 / weightb=1 / open_gop=0 / weightp=2 / keyint=250 / keyint_min=23 / scenecut=40 / intra_refresh=0 / rc_lookahead=50 / rc=crf / mbtree=1 / crf=18.0 / qcomp=0.60 / qpmin=0 / qpmax=69 / qpstep=4 / ip_ratio=1.40 / aq=1:1.00
  26. Language : English
  27. Default : Yes
  28. Forced : No

  29. Audio #1
  30. ID : 2
  31. Format : DTS XLL
  32. Format/Info : Digital Theater Systems
  33. Commercial name : DTS-HD Master Audio
  34. Codec ID : A_DTS
  35. Duration : 2 h 41 min
  36. Bit rate mode : Variable
  37. Bit rate : 2 560 kb/s
  38. Channel(s) : 8 channels
  39. Channel layout : C L R LFE Lb Rb Lss Rss
  40. Sampling rate : 48.0 kHz
  41. Frame rate : 93.750 FPS (512 SPF)
  42. Bit depth : 16 bits
  43. Compression mode : Lossless
  44. Stream size : 2.89 GiB (5%)
  45. Title : Once.Upon.a.Time.in.Hollywood.2019.2160p.BluRay.x264.8bit.SDR.DTS-HD.MA.7.1-SWTYBLZ
  46. Language : English
  47. Default : Yes
  48. Forced : No

  49. Audio #2
  50. ID : 3
  51. Format : AC-3
  52. Format/Info : Audio Coding 3
  53. Commercial name : Dolby Digital
  54. Codec ID : A_AC3
  55. Duration : 2 h 41 min
  56. Bit rate mode : Constant
  57. Bit rate : 640 kb/s
  58. Channel(s) : 6 channels
  59. Channel layout : L R C LFE Ls Rs
  60. Sampling rate : 48.0 kHz
  61. Frame rate : 31.250 FPS (1536 SPF)
  62. Bit depth : 16 bits
  63. Compression mode : Lossy
  64. Stream size : 739 MiB (1%)
  65. Title : Once.Upon.a.Time.in.Hollywood.2019.2160p.BluRay.x264.8bit.SDR.DTS-HD.MA.7.1-SWTYBLZ
  66. Language : English
  67. Service kind : Complete Main
  68. Default : No
  69. Forced : No

  70. Text #1
  71. ID : 4
  72. Format : UTF-8
  73. Codec ID : S_TEXT/UTF8
  74. Codec ID/Info : UTF-8 Plain Text
  75. Duration : 2 h 39 min
  76. Bit rate : 56 b/s
  77. Count of elements : 2130
  78. Stream size : 65.8 KiB (0%)
  79. Title : English-SRT
  80. Language : English
  81. Default : Yes
  82. Forced : No

  83. Text #2
  84. ID : 5
  85. Format : UTF-8
  86. Codec ID : S_TEXT/UTF8
  87. Codec ID/Info : UTF-8 Plain Text
  88. Duration : 2 h 40 min
  89. Bit rate : 64 b/s
  90. Count of elements : 2542
  91. Stream size : 76.3 KiB (0%)
  92. Title : English-SDH-SRT
  93. Language : English
  94. Default : No
  95. Forced : No

  96. Text #3
  97. ID : 6
  98. Format : PGS
  99. Muxing mode : zlib
  100. Codec ID : S_HDMV/PGS
  101. Codec ID/Info : Picture based subtitle format used on BDs/HD-DVDs
  102. Duration : 2 h 40 min
  103. Bit rate : 37.2 kb/s
  104. Count of elements : 4116
  105. Stream size : 42.8 MiB (0%)
  106. Title : English-SDH-PGS
  107. Language : English
  108. Default : No
  109. Forced : No

  110. Text #4
  111. ID : 7
  112. Format : PGS
  113. Muxing mode : zlib
  114. Codec ID : S_HDMV/PGS
  115. Codec ID/Info : Picture based subtitle format used on BDs/HD-DVDs
  116. Duration : 2 h 39 min
  117. Bit rate : 33.7 kb/s
  118. Count of elements : 3588
  119. Stream size : 38.4 MiB (0%)
  120. Title : English-PGS
  121. Language : English
  122. Default : No
  123. Forced : No

  124. Text #5
  125. ID : 8
  126. Format : PGS
  127. Muxing mode : zlib
  128. Codec ID : S_HDMV/PGS
  129. Codec ID/Info : Picture based subtitle format used on BDs/HD-DVDs
  130. Duration : 2 h 40 min
  131. Bit rate : 37.2 kb/s
  132. Count of elements : 4116
  133. Stream size : 42.8 MiB (0%)
  134. Title : English-SDH-PGS
  135. Language : English
  136. Default : No
  137. Forced : No

  138. Text #6
  139. ID : 9
  140. Format : PGS
  141. Muxing mode : zlib
  142. Codec ID : S_HDMV/PGS
  143. Codec ID/Info : Picture based subtitle format used on BDs/HD-DVDs
  144. Duration : 2 h 39 min
  145. Bit rate : 33.7 kb/s
  146. Count of elements : 3588
  147. Stream size : 38.4 MiB (0%)
  148. Title : English-PGS
  149. Language : English
  150. Default : No
  151. Forced : No

  152. Text #7
  153. ID : 10
  154. Format : PGS
  155. Muxing mode : zlib
  156. Codec ID : S_HDMV/PGS
  157. Codec ID/Info : Picture based subtitle format used on BDs/HD-DVDs
  158. Duration : 2 h 40 min
  159. Bit rate : 16.4 kb/s
  160. Count of elements : 3499
  161. Stream size : 18.9 MiB (0%)
  162. Title : Arabic-PGS
  163. Language : Arabic
  164. Default : No
  165. Forced : No

  166. Text #8
  167. ID : 11
  168. Format : PGS
  169. Muxing mode : zlib
  170. Codec ID : S_HDMV/PGS
  171. Codec ID/Info : Picture based subtitle format used on BDs/HD-DVDs
  172. Duration : 2 h 40 min
  173. Bit rate : 27.7 kb/s
  174. Count of elements : 3530
  175. Stream size : 31.9 MiB (0%)
  176. Title : Bulgarian-PGS
  177. Language : Bulgarian
  178. Default : No
  179. Forced : No

  180. Text #9
  181. ID : 12
  182. Format : PGS
  183. Muxing mode : zlib
  184. Codec ID : S_HDMV/PGS
  185. Codec ID/Info : Picture based subtitle format used on BDs/HD-DVDs
  186. Duration : 2 h 40 min
  187. Bit rate : 22.1 kb/s
  188. Count of elements : 3538
  189. Stream size : 25.5 MiB (0%)
  190. Title : Chinese-PGS
  191. Language : Chinese
  192. Default : No
  193. Forced : No

  194. Text #10
  195. ID : 13
  196. Format : PGS
  197. Muxing mode : zlib
  198. Codec ID : S_HDMV/PGS
  199. Codec ID/Info : Picture based subtitle format used on BDs/HD-DVDs
  200. Duration : 2 h 40 min
  201. Bit rate : 24.8 kb/s
  202. Count of elements : 3538
  203. Stream size : 28.5 MiB (0%)
  204. Title : Chinese-PGS
  205. Language : Chinese
  206. Default : No
  207. Forced : No

  208. Text #11
  209. ID : 14
  210. Format : PGS
  211. Muxing mode : zlib
  212. Codec ID : S_HDMV/PGS
  213. Codec ID/Info : Picture based subtitle format used on BDs/HD-DVDs
  214. Duration : 2 h 40 min
  215. Bit rate : 26.0 kb/s
  216. Count of elements : 3520
  217. Stream size : 29.9 MiB (0%)
  218. Title : Chinese-PGS
  219. Language : Chinese
  220. Default : No
  221. Forced : No

  222. Text #12
  223. ID : 15
  224. Format : PGS
  225. Muxing mode : zlib
  226. Codec ID : S_HDMV/PGS
  227. Codec ID/Info : Picture based subtitle format used on BDs/HD-DVDs
  228. Duration : 2 h 40 min
  229. Bit rate : 26.6 kb/s
  230. Count of elements : 3504
  231. Stream size : 30.6 MiB (0%)
  232. Title : Croatian-PGS
  233. Language : Croatian
  234. Default : No
  235. Forced : No

  236. Text #13
  237. ID : 16
  238. Format : PGS
  239. Muxing mode : zlib
  240. Codec ID : S_HDMV/PGS
  241. Codec ID/Info : Picture based subtitle format used on BDs/HD-DVDs
  242. Duration : 2 h 40 min
  243. Bit rate : 27.7 kb/s
  244. Count of elements : 3488
  245. Stream size : 31.9 MiB (0%)
  246. Title : Czech-PGS
  247. Language : Czech
  248. Default : No
  249. Forced : No

  250. Text #14
  251. ID : 17
  252. Format : PGS
  253. Muxing mode : zlib
  254. Codec ID : S_HDMV/PGS
  255. Codec ID/Info : Picture based subtitle format used on BDs/HD-DVDs
  256. Duration : 2 h 40 min
  257. Bit rate : 26.9 kb/s
  258. Count of elements : 3792
  259. Stream size : 30.9 MiB (0%)
  260. Title : Estonian-PGS
  261. Language : Estonian
  262. Default : No
  263. Forced : No

  264. Text #15
  265. ID : 18
  266. Format : PGS
  267. Muxing mode : zlib
  268. Codec ID : S_HDMV/PGS
  269. Codec ID/Info : Picture based subtitle format used on BDs/HD-DVDs
  270. Duration : 2 h 40 min
  271. Bit rate : 27.3 kb/s
  272. Count of elements : 3317
  273. Stream size : 31.4 MiB (0%)
  274. Title : French-PGS
  275. Language : French
  276. Default : No
  277. Forced : No

  278. Text #16
  279. ID : 19
  280. Format : PGS
  281. Muxing mode : zlib
  282. Codec ID : S_HDMV/PGS
  283. Codec ID/Info : Picture based subtitle format used on BDs/HD-DVDs
  284. Duration : 2 h 39 min
  285. Bit rate : 31.1 kb/s
  286. Count of elements : 3470
  287. Stream size : 35.5 MiB (0%)
  288. Title : Greek-PGS
  289. Language : Greek
  290. Default : No
  291. Forced : No

  292. Text #17
  293. ID : 20
  294. Format : PGS
  295. Muxing mode : zlib
  296. Codec ID : S_HDMV/PGS
  297. Codec ID/Info : Picture based subtitle format used on BDs/HD-DVDs
  298. Duration : 2 h 40 min
  299. Bit rate : 22.5 kb/s
  300. Count of elements : 3498
  301. Stream size : 25.9 MiB (0%)
  302. Title : Hebrew-PGS
  303. Language : Hebrew
  304. Default : No
  305. Forced : No

  306. Text #18
  307. ID : 21
  308. Format : PGS
  309. Muxing mode : zlib
  310. Codec ID : S_HDMV/PGS
  311. Codec ID/Info : Picture based subtitle format used on BDs/HD-DVDs
  312. Duration : 2 h 40 min
  313. Bit rate : 28.2 kb/s
  314. Count of elements : 2908
  315. Stream size : 32.4 MiB (0%)
  316. Title : Hungarian-PGS
  317. Language : Hungarian
  318. Default : No
  319. Forced : No

  320. Text #19
  321. ID : 22
  322. Format : PGS
  323. Muxing mode : zlib
  324. Codec ID : S_HDMV/PGS
  325. Codec ID/Info : Picture based subtitle format used on BDs/HD-DVDs
  326. Duration : 2 h 40 min
  327. Bit rate : 28.8 kb/s
  328. Count of elements : 3268
  329. Stream size : 33.1 MiB (0%)
  330. Title : Icelandic-PGS
  331. Language : Icelandic
  332. Default : No
  333. Forced : No

  334. Text #20
  335. ID : 23
  336. Format : PGS
  337. Muxing mode : zlib
  338. Codec ID : S_HDMV/PGS
  339. Codec ID/Info : Picture based subtitle format used on BDs/HD-DVDs
  340. Duration : 2 h 40 min
  341. Bit rate : 29.9 kb/s
  342. Count of elements : 3394
  343. Stream size : 34.4 MiB (0%)
  344. Title : Indonesian-PGS
  345. Language : Indonesian
  346. Default : No
  347. Forced : No

  348. Text #21
  349. ID : 24
  350. Format : PGS
  351. Muxing mode : zlib
  352. Codec ID : S_HDMV/PGS
  353. Codec ID/Info : Picture based subtitle format used on BDs/HD-DVDs
  354. Duration : 2 h 40 min
  355. Bit rate : 22.4 kb/s
  356. Count of elements : 3539
  357. Stream size : 25.7 MiB (0%)
  358. Title : Korean-PGS
  359. Language : Korean
  360. Default : No
  361. Forced : No

  362. Text #22
  363. ID : 25
  364. Format : PGS
  365. Muxing mode : zlib
  366. Codec ID : S_HDMV/PGS
  367. Codec ID/Info : Picture based subtitle format used on BDs/HD-DVDs
  368. Duration : 2 h 40 min
  369. Bit rate : 27.7 kb/s
  370. Count of elements : 3728
  371. Stream size : 31.8 MiB (0%)
  372. Title : Latvian-PGS
  373. Language : Latvian
  374. Default : No
  375. Forced : No

  376. Text #23
  377. ID : 26
  378. Format : PGS
  379. Muxing mode : zlib
  380. Codec ID : S_HDMV/PGS
  381. Codec ID/Info : Picture based subtitle format used on BDs/HD-DVDs
  382. Duration : 2 h 40 min
  383. Bit rate : 27.2 kb/s
  384. Count of elements : 3468
  385. Stream size : 31.2 MiB (0%)
  386. Title : Lithuanian-PGS
  387. Language : Lithuanian
  388. Default : No
  389. Forced : No

  390. Text #24
  391. ID : 27
  392. Format : PGS
  393. Muxing mode : zlib
  394. Codec ID : S_HDMV/PGS
  395. Codec ID/Info : Picture based subtitle format used on BDs/HD-DVDs
  396. Duration : 2 h 40 min
  397. Bit rate : 26.9 kb/s
  398. Count of elements : 3474
  399. Stream size : 30.9 MiB (0%)
  400. Title : Polish-PGS
  401. Language : Polish
  402. Default : No
  403. Forced : No

  404. Text #25
  405. ID : 28
  406. Format : PGS
  407. Muxing mode : zlib
  408. Codec ID : S_HDMV/PGS
  409. Codec ID/Info : Picture based subtitle format used on BDs/HD-DVDs
  410. Duration : 2 h 40 min
  411. Bit rate : 29.5 kb/s
  412. Count of elements : 3414
  413. Stream size : 33.9 MiB (0%)
  414. Title : Portuguese-PGS
  415. Language : Portuguese
  416. Default : No
  417. Forced : No

  418. Text #26
  419. ID : 29
  420. Format : PGS
  421. Muxing mode : zlib
  422. Codec ID : S_HDMV/PGS
  423. Codec ID/Info : Picture based subtitle format used on BDs/HD-DVDs
  424. Duration : 2 h 40 min
  425. Bit rate : 30.4 kb/s
  426. Count of elements : 3510
  427. Stream size : 35.0 MiB (0%)
  428. Title : Portuguese-PGS
  429. Language : Portuguese
  430. Default : No
  431. Forced : No

  432. Text #27
  433. ID : 30
  434. Format : PGS
  435. Muxing mode : zlib
  436. Codec ID : S_HDMV/PGS
  437. Codec ID/Info : Picture based subtitle format used on BDs/HD-DVDs
  438. Duration : 2 h 40 min
  439. Bit rate : 29.1 kb/s
  440. Count of elements : 3334
  441. Stream size : 33.5 MiB (0%)
  442. Title : Romanian-PGS
  443. Language : Romanian
  444. Default : No
  445. Forced : No

  446. Text #28
  447. ID : 31
  448. Format : PGS
  449. Muxing mode : zlib
  450. Codec ID : S_HDMV/PGS
  451. Codec ID/Info : Picture based subtitle format used on BDs/HD-DVDs
  452. Duration : 2 h 40 min
  453. Bit rate : 27.8 kb/s
  454. Count of elements : 3532
  455. Stream size : 32.0 MiB (0%)
  456. Title : Russian-PGS
  457. Language : Russian
  458. Default : No
  459. Forced : No

  460. Text #29
  461. ID : 32
  462. Format : PGS
  463. Muxing mode : zlib
  464. Codec ID : S_HDMV/PGS
  465. Codec ID/Info : Picture based subtitle format used on BDs/HD-DVDs
  466. Duration : 2 h 40 min
  467. Bit rate : 27.9 kb/s
  468. Count of elements : 3532
  469. Stream size : 32.1 MiB (0%)
  470. Title : Serbian-PGS
  471. Language : Serbian
  472. Default : No
  473. Forced : No

  474. Text #30
  475. ID : 33
  476. Format : PGS
  477. Muxing mode : zlib
  478. Codec ID : S_HDMV/PGS
  479. Codec ID/Info : Picture based subtitle format used on BDs/HD-DVDs
  480. Duration : 2 h 40 min
  481. Bit rate : 25.2 kb/s
  482. Count of elements : 3518
  483. Stream size : 28.9 MiB (0%)
  484. Title : Slovak-PGS
  485. Language : Slovak
  486. Default : No
  487. Forced : No

  488. Text #31
  489. ID : 34
  490. Format : PGS
  491. Muxing mode : zlib
  492. Codec ID : S_HDMV/PGS
  493. Codec ID/Info : Picture based subtitle format used on BDs/HD-DVDs
  494. Duration : 2 h 40 min
  495. Bit rate : 25.5 kb/s
  496. Count of elements : 3036
  497. Stream size : 29.4 MiB (0%)
  498. Title : Slovenian-PGS
  499. Language : Slovenian
  500. Default : No
  501. Forced : No

  502. Text #32
  503. ID : 35
  504. Format : PGS
  505. Muxing mode : zlib
  506. Codec ID : S_HDMV/PGS
  507. Codec ID/Info : Picture based subtitle format used on BDs/HD-DVDs
  508. Duration : 2 h 40 min
  509. Bit rate : 29.6 kb/s
  510. Count of elements : 3462
  511. Stream size : 34.1 MiB (0%)
  512. Title : Spanish-PGS
  513. Language : Spanish
  514. Default : No
  515. Forced : No

  516. Text #33
  517. ID : 36
  518. Format : PGS
  519. Muxing mode : zlib
  520. Codec ID : S_HDMV/PGS
  521. Codec ID/Info : Picture based subtitle format used on BDs/HD-DVDs
  522. Duration : 2 h 40 min
  523. Bit rate : 25.3 kb/s
  524. Count of elements : 3526
  525. Stream size : 29.1 MiB (0%)
  526. Title : Thai-PGS
  527. Language : Thai
  528. Default : No
  529. Forced : No

  530. Menu
  531. 00:00:00.000 : en:Chapter 01
  532. 00:04:49.330 : en:Chapter 02
  533. 00:13:45.199 : en:Chapter 03
  534. 00:18:28.899 : en:Chapter 04
  535. 00:22:00.319 : en:Chapter 05
  536. 00:25:59.349 : en:Chapter 06
  537. 00:28:41.344 : en:Chapter 07
  538. 00:33:45.064 : en:Chapter 08
  539. 00:40:19.333 : en:Chapter 09
  540. 00:49:59.413 : en:Chapter 10
  541. 00:51:48.688 : en:Chapter 11
  542. 00:59:52.714 : en:Chapter 12
  543. 01:02:32.874 : en:Chapter 13
  544. 01:04:28.614 : en:Chapter 14
  545. 01:09:16.735 : en:Chapter 15
  546. 01:17:40.447 : en:Chapter 16
  547. 01:20:25.779 : en:Chapter 17
  548. 01:26:28.433 : en:Chapter 18
  549. 01:32:54.443 : en:Chapter 19
  550. 01:39:58.200 : en:Chapter 20
  551. 01:47:55.218 : en:Chapter 21
  552. 01:53:00.190 : en:Chapter 22
  553. 01:58:09.373 : en:Chapter 23
  554. 02:06:23.701 : en:Chapter 24
  555. 02:11:22.958 : en:Chapter 25
  556. 02:15:50.100 : en:Chapter 26
  557. 02:21:30.190 : en:Chapter 27
  558. 02:29:50.523 : en:Chapter 28
  559. 02:36:28.379 : en:Chapter 29
  560. 02:38:51.230 : en:Chapter 30
复制代码

好莱坞往事 Once.Upon.a.Time.in.Hollywood.2019.2160p.BluRay.x264.8bit.SDR.DTS-HD.MA.7.1-SWTYBLZ 54.62GB-2.png 好莱坞往事 Once.Upon.a.Time.in.Hollywood.2019.2160p.BluRay.x264.8bit.SDR.DTS-HD.MA.7.1-SWTYBLZ 54.62GB-3.png 好莱坞往事 Once.Upon.a.Time.in.Hollywood.2019.2160p.BluRay.x264.8bit.SDR.DTS-HD.MA.7.1-SWTYBLZ 54.62GB-4.png 好莱坞往事 Once.Upon.a.Time.in.Hollywood.2019.2160p.BluRay.x264.8bit.SDR.DTS-HD.MA.7.1-SWTYBLZ 54.62GB-5.png 好莱坞往事 Once.Upon.a.Time.in.Hollywood.2019.2160p.BluRay.x264.8bit.SDR.DTS-HD.MA.7.1-SWTYBLZ 54.62GB-2.png 好莱坞往事 Once.Upon.a.Time.in.Hollywood.2019.2160p.BluRay.x264.8bit.SDR.DTS-HD.MA.7.1-SWTYBLZ 54.62GB-7.png 好莱坞往事 Once.Upon.a.Time.in.Hollywood.2019.2160p.BluRay.x264.8bit.SDR.DTS-HD.MA.7.1-SWTYBLZ 54.62GB-3.png





回复

使用道具 举报

发表于 2019-12-1 18:06:34 | 显示全部楼层
楼主发贴辛苦了,谢谢楼主分享!我觉得蓝光电影网是注册对了!
回复 支持 反对

使用道具 举报

发表于 2019-12-1 19:24:55 | 显示全部楼层
楼主发贴辛苦了,谢谢楼主分享!我觉得蓝光电影网是注册对了!
回复 支持 反对

使用道具 举报

发表于 2019-12-2 20:02:14 | 显示全部楼层

楼主太厉害了!楼主,电影应该很好看我觉得蓝光电影网真是个好地方!
回复 支持 反对

使用道具 举报

发表于 2019-12-3 08:26:37 | 显示全部楼层

楼主太厉害了!楼主,电影应该很好看我觉得蓝光电影网真是个好地方!
回复 支持 反对

使用道具 举报

懒得打字嘛,点击右侧快捷回复 【右侧内容,后台自定义】
您需要登录后才可以回帖 登录 | 立即加入

本版积分规则

现在加入蓝光电影网,注册一个账号
上个主题 下个主题 快速回复 收藏帖子 返回列表 客服中心 搜索

QQ| 手机版|小黑屋| 蓝光电影网 |网站地图 

Copyright © 2015-2019 Comsenz Inc.  Template by 蓝光电影论坛 All Rights Reserved.

Powered by 蓝光电影网 X3.4

特别声明:本站所有资源均由网上收集而来,版权归原影音公司所有,如果侵犯了你的权益,请通知我们,我们会及时删除侵权内容.

快速回复 返回顶部 返回列表