找回密码

蓝光电影网

查看: 27|回复: 2

[剧情片] 剩女童话 Crown.For.Christmas.2015.1080p.AMZN.WEBRip.DDP5.1.x264-ABM 6.40GB

[复制链接]

 成长值: 23215

发表于 2019-11-8 23:40:35 | 显示全部楼层 |阅读模式
剩女童话 Crown.For.Christmas.2015.1080p.AMZN.WEBRip.DDP5.1.x264-ABM 6.40GB-1.png

译  名 剩女童话
片  名 Crown for Christmas
年  代 2015
产  地 美国
类  别 家庭 / 儿童
语  言 英语
上映日期 2015-11-15
IMDb评分  7.0/10 from 3177 users
IMDb链接  https://www.imdb.com/title/tt5133572
豆瓣评分 5.9/10 from 159 users
豆瓣链接 https://movie.douban.com/subject/26678791/
片  长 84分钟
导  演 亚历克斯·帕斯特尔 àlex Pastor
主  演 丹妮卡·麦凯拉 Danica McKellar
       鲁伯特·彭利-琼斯 Rupert Penry-Jones
       Alexandra Evans


标  签 爱情 | 美国 | 灰姑娘 | 美国电影 | 喜剧 | christmas | 浪漫 | 家庭

简  介  

  Allie,一个平凡的女佣,老了多年的老姑娘(Danica McKellar)实现了她的灰姑娘之梦……
  她在这个梦里与恶公主
  进行了精彩的宫斗。
  1. Video
  2. ID                                       : 1
  3. Format                                   : AVC
  4. Format/Info                              : Advanced Video Codec
  5. Format profile                           : High@L4
  6. Format settings                          : CABAC / 4 Ref Frames
  7. Format settings, CABAC                   : Yes
  8. Format settings, Reference frames        : 4 frames
  9. Format settings, GOP                     : M=4, N=48
  10. Codec ID                                 : V_MPEG4/ISO/AVC
  11. Duration                                 : 1 h 26 min
  12. Bit rate mode                            : Constant
  13. Bit rate                                 : 10 000 kb/s
  14. Width                                    : 1 920 pixels
  15. Height                                   : 1 080 pixels
  16. Display aspect ratio                     : 16:9
  17. Frame rate mode                          : Constant
  18. Frame rate                               : 23.976 (24000/1001) FPS
  19. Color space                              : YUV
  20. Chroma subsampling                       : 4:2:0
  21. Bit depth                                : 8 bits
  22. Scan type                                : Progressive
  23. Bits/(Pixel*Frame)                       : 0.201
  24. Stream size                              : 6.01 GiB (94%)
  25. Language                                 : English
  26. Default                                  : Yes
  27. Forced                                   : No
  28. Color range                              : Limited
  29. Color primaries                          : BT.709
  30. Transfer characteristics                 : BT.709
  31. Matrix coefficients                      : BT.709

  32. Audio
  33. ID                                       : 2
  34. Format                                   : E-AC-3
  35. Format/Info                              : Enhanced AC-3
  36. Commercial name                          : Dolby Digital Plus
  37. Codec ID                                 : A_EAC3
  38. Duration                                 : 1 h 26 min
  39. Bit rate mode                            : Constant
  40. Bit rate                                 : 640 kb/s
  41. Channel(s)                               : 6 channels
  42. Channel layout                           : L R C LFE Ls Rs
  43. Sampling rate                            : 48.0 kHz
  44. Frame rate                               : 31.250 FPS (1536 SPF)
  45. Compression mode                         : Lossy
  46. Stream size                              : 396 MiB (6%)
  47. Language                                 : English
  48. Service kind                             : Complete Main
  49. Default                                  : Yes
  50. Forced                                   : No

  51. Text
  52. ID                                       : 3
  53. Format                                   : UTF-8
  54. Codec ID                                 : S_TEXT/UTF8
  55. Codec ID/Info                            : UTF-8 Plain Text
  56. Duration                                 : 1 h 23 min
  57. Bit rate                                 : 64 b/s
  58. Count of elements                        : 1368
  59. Stream size                              : 39.8 KiB (0%)
  60. Language                                 : English
  61. Default                                  : No
  62. Forced                                   : No
复制代码

剩女童话 Crown.For.Christmas.2015.1080p.AMZN.WEBRip.DDP5.1.x264-ABM 6.40GB-2.png 剩女童话 Crown.For.Christmas.2015.1080p.AMZN.WEBRip.DDP5.1.x264-ABM 6.40GB-3.png 剩女童话 Crown.For.Christmas.2015.1080p.AMZN.WEBRip.DDP5.1.x264-ABM 6.40GB-4.png







回复

使用道具 举报

发表于 2019-11-9 10:43:42 | 显示全部楼层
楼主发贴辛苦了,谢谢楼主分享!我觉得蓝光电影网是注册对了!
回复 支持 反对

使用道具 举报

发表于 2019-11-10 11:06:04 | 显示全部楼层
楼主发贴辛苦了,谢谢楼主分享!我觉得蓝光电影网是注册对了!
回复 支持 反对

使用道具 举报

懒得打字嘛,点击右侧快捷回复 【右侧内容,后台自定义】
您需要登录后才可以回帖 登录 | 立即加入

本版积分规则

现在加入蓝光电影网,注册一个账号

QQ| 手机版|小黑屋| 蓝光电影网 |网站地图 

Copyright © 2015-2019 Comsenz Inc.  Template by 蓝光电影论坛 All Rights Reserved.

Powered by 蓝光电影网 X3.4

特别声明:本站所有资源均由网上收集而来,版权归原影音公司所有,如果侵犯了你的权益,请通知我们,我们会及时删除侵权内容.

快速回复 返回顶部 返回列表