找回密码

蓝光电影网

查看: 141|回复: 1

[10bit.SDR] 海洋奇缘/摩瓦娜 Moana.2016.2160p.BluRay.x265.10bit.SDR.DTS-HD.MA.TrueHD.7.1.Atmos-SWTYBLZ 22.35GB

[复制链接]

 成长值: 23245

发表于 2019-10-26 16:29:15 | 显示全部楼层 |阅读模式
海洋奇缘/摩瓦娜 Moana.2016.2160p.BluRay.x265.10bit.SDR.DTS-HD.MA.TrueHD.7.1.Atmos-SWTYBLZ 22.35GB-1.png

译  名 海洋奇缘 / 摩瓦娜 / 摩阿娜 / 莫阿娜
片  名 Moana
年  代 2016
产  地 美国
类  别 动画 / 歌舞 / 奇幻 / 冒险
语  言 英语
上映日期 2016-11-23(美国) / 2016-11-25(中国大陆)
IMDb评分  7.6/10 from 234250 users
IMDb链接  https://www.imdb.com/title/tt3521164
豆瓣评分 7.5/10 from 110927 users
豆瓣链接 https://movie.douban.com/subject/25793398/
片  长 107分钟
导  演 罗恩·克莱蒙兹 Ron Clements / 约翰·马斯克 John Musker / 唐·霍尔 Don Hall / 克里斯·威廉姆斯 Chris Williams
编  剧 杰拉德·布什 Jared Bush / 罗恩·克莱蒙兹 Ron Clements / 约翰·马斯克 John Musker / 克里斯·威廉姆斯 Chris Williams / 唐·霍尔 Don Hall / 帕米拉·里本 Pamela Ribon / 亚伦·坎德尔 Aaron Kandell / 乔丹·坎德尔 Jordan Kandell
主  演 奥丽伊·卡瓦洛 Auli'i Cravalho
       道恩·强森 Dwayne Johnson
       瑞切尔·豪斯 Rachel House
       特穆拉·莫里森 Temuera Morrison
       杰梅奈·克莱门特 Jemaine Clement
       尼可·斯彻金格 Nicole Scherzinger
       艾伦·图代克 Alan Tudyk
       奥斯卡·凯特利 Oscar Kightley
       特洛伊·波拉马鲁 Troy Polamalu
       普阿娜妮·卡瓦洛 Puanani Cravalho
       露易丝·布什 Louise Bush


标  签 迪士尼 | 动画 | 美国 | 冒险 | 奇幻 | 成长 | 2016 | 喜剧

简  介  

  故事最早始于住在风和海的半神毛伊(道恩·强森 Dwayne Johnson 配音),他偷走了女神的特菲堤之心,导致岩浆魔鬼厄卡陷入疯狂的状态,南太平洋各小岛也面临着毁灭的威胁。一千多年后,某座小岛上的酋长女儿莫阿娜(奥丽依·卡拉瓦霍 Auli'i Cravalho 配音)在父母的呵护下渐渐长大,童年时她曾偶然捡到特菲堤之心,亦曾受到大海的召唤,然而父亲却严厉禁止莫阿娜出海,即使小岛正遭受着死亡的威胁。从奶奶那里,莫阿娜知晓了他们这一族人的历史,于是为了拯救小岛,她依然出海去寻找被困在某地的毛伊,好让他归还特菲堤之心。历经千辛万苦,莫阿娜终于见到了这个传说中的高傲自大的半神。而毛伊则担心特菲堤之心带来霉运拒绝前往。
  只不过在命运的指引下,毛伊还是随着莫阿娜踏上未知的征途……

获奖情况  

  第89届奥斯卡金像奖(2017)
  最佳动画长片(提名) 约翰·马斯克 / 奥斯娜特·舒尔 / 罗恩·克莱蒙兹
  最佳原创歌曲(提名) 林-曼努尔·米兰达

  第74届金球奖(2017)
  电影类 最佳动画长片(提名)
  电影类 最佳原创歌曲(提名)

  第70届英国电影学院奖(2017)
  电影奖 最佳动画片(提名) 约翰·马斯克 / 罗恩·克莱蒙兹

  第44届动画安妮奖(2017)
  最佳动画长片(提名)
  最佳配音 奥丽伊·卡瓦洛
  最佳剪辑(提名)
  最佳分镜(提名)
  最佳角色设计(提名)
  最佳动画效果

  第28届美国制片人工会奖(2017)
  最佳动画片制片人奖(提名)

  第67届美国剪辑工会奖(2017)
  动画片最佳剪辑(提名)

  第15届美国视觉效果协会奖(2017)
  最佳动画电影视觉效果(提名)
  最佳动画电影CG动画角色(提名)
  最佳动画电影CG背景
  最佳动画电影模拟动画效果

  第53届美国声音效果协会奖(2017)
  动画电影最佳音效(提名)

  第22届美国评论家选择电影奖(2017)
  最佳动画片(提名)
  最佳歌曲(提名)

  第21届金卫星奖(2017)
  电影部门 最佳动画片(提名)

  第15届华盛顿影评人协会奖(2016)
  最佳动画片(提名)
  最佳配音(提名) 奥丽伊·卡瓦洛

  第29届芝加哥影评人协会奖(2016)
  最佳动画片(提名)

  第20届美国在线影评人协会奖(2017)
  最佳动画片(提名)

  第3届豆瓣电影年度榜单(2016)
  评分最高的动画片(提名)
  1. Video
  2. ID                                       : 1
  3. Format                                   : HEVC
  4. Format/Info                              : High Efficiency Video Coding
  5. Format profile                           : Main High@L4@High
  6. Codec ID                                 : V_MPEGH/ISO/HEVC
  7. Duration                                 : 1 h 47 min
  8. Bit rate                                 : 17.4 Mb/s
  9. Width                                    : 3 840 pixels
  10. Height                                   : 1 608 pixels
  11. Display aspect ratio                     : 2.40:1
  12. Frame rate mode                          : Constant
  13. Frame rate                               : 23.976 (24000/1001) FPS
  14. Color space                              : YUV
  15. Chroma subsampling                       : 4:2:0
  16. Bit depth                                : 10 bits
  17. Bits/(Pixel*Frame)                       : 0.118
  18. Stream size                              : 13.0 GiB (58%)
  19. Title                                    : Moana.2016.2160p.BluRay.x265.10bit.SDR.DTS-HD.MA.TrueHD.7.1.Atmos-SWTYBLZ
  20. Writing library                          : x265 3.0ed72af837053:[Windows][GCC 8.2.0][64 bit] 10bit
  21. Encoding settings                        : cpuid=1111039 / frame-threads=16 / numa-pools=44,44 / wpp / no-pmode / no-pme / no-psnr / no-ssim / log-level=2 / input-csp=1 / input-res=3840x1608 / interlace=0 / total-frames=154229 / level-idc=51 / high-tier=1 / uhd-bd=0 / ref=3 / no-allow-non-conformance / repeat-headers / annexb / aud / hrd / info / hash=0 / no-temporal-layers / no-open-gop / min-keyint=1 / keyint=24 / gop-lookahead=0 / bframes=6 / b-adapt=2 / b-pyramid / bframe-bias=0 / rc-lookahead=25 / lookahead-slices=4 / scenecut=40 / radl=0 / no-splice / no-intra-refresh / ctu=64 / min-cu-size=8 / no-rect / no-amp / max-tu-size=32 / tu-inter-depth=1 / tu-intra-depth=1 / limit-tu=0 / rdoq-level=0 / dynamic-rd=0.00 / no-ssim-rd / signhide / no-tskip / nr-intra=0 / nr-inter=0 / no-constrained-intra / strong-intra-smoothing / max-merge=2 / limit-refs=3 / no-limit-modes / me=1 / subme=2 / merange=57 / temporal-mvp / weightp / no-weightb / no-analyze-src-pics / deblock=1:1 / no-sao / no-sao-non-deblock / rd=3 / no-early-skip / rskip / no-fast-intra / no-tskip-fast / no-cu-lossless / no-b-intra / no-splitrd-skip / rdpenalty=0 / psy-rd=0.40 / psy-rdoq=0.00 / no-rd-refine / no-lossless / cbqpoffs=0 / crqpoffs=0 / rc=crf / crf=16.0 / qcomp=0.60 / qpstep=4 / stats-write=0 / stats-read=0 / vbv-maxrate=160000 / vbv-bufsize=160000 / vbv-init=0.9 / crf-max=0.0 / crf-min=0.0 / ipratio=1.40 / pbratio=1.30 / aq-mode=1 / aq-strength=0.40 / cutree / zone-count=0 / no-strict-cbr / qg-size=32 / no-rc-grain / qpmax=69 / qpmin=0 / no-const-vbv / sar=1 / overscan=0 / videoformat=5 / range=0 / colorprim=2 / transfer=2 / colormatrix=2 / chromaloc=0 / display-window=0 / max-cll=0,0 / min-luma=0 / max-luma=1023 / log2-max-poc-lsb=8 / vui-timing-info / vui-hrd-info / slices=1 / opt-qp-pps / opt-ref-list-length-pps / no-multi-pass-opt-rps / scenecut-bias=0.05 / no-opt-cu-delta-qp / no-aq-motion / no-hdr / no-hdr-opt / no-dhdr10-opt / no-idr-recovery-sei / analysis-reuse-level=5 / scale-factor=0 / refine-intra=0 / refine-inter=0 / refine-mv=0 / refine-ctu-distortion=0 / no-limit-sao / ctu-info=0 / no-lowpass-dct / refine-analysis-type=0 / copy-pic=1 / max-ausize-factor=1.0 / no-dynamic-refine / no-single-sei / no-hevc-aq / qp-adaptation-range=1.00
  22. Default                                  : Yes
  23. Forced                                   : No

  24. Audio #1
  25. ID                                       : 2
  26. Format                                   : MLP FBA 16-ch
  27. Format/Info                              : Meridian Lossless Packing FBA with 16-channel presentation
  28. Commercial name                          : Dolby TrueHD with Dolby Atmos
  29. Codec ID                                 : A_TRUEHD
  30. Duration                                 : 1 h 47 min
  31. Bit rate mode                            : Variable
  32. Bit rate                                 : 7 681 kb/s
  33. Maximum bit rate                         : 11.3 Mb/s
  34. Channel(s)                               : 8 channels
  35. Channel layout                           : L R C LFE Ls Rs Lb Rb
  36. Sampling rate                            : 48.0 kHz
  37. Frame rate                               : 1 200.000 FPS (40 SPF)
  38. Compression mode                         : Lossless
  39. Stream size                              : 5.75 GiB (26%)
  40. Title                                    : Moana.2016.2160p.BluRay.x265.10bit.SDR.DTS-HD.MA.TrueHD.7.1.Atmos-SWTYBLZ
  41. Language                                 : English
  42. Default                                  : Yes
  43. Forced                                   : No
  44. Number of dynamic objects                : 13
  45. Bed channel count                        : 1 channel
  46. Bed channel configuration                : LFE

  47. Audio #2
  48. ID                                       : 3
  49. Format                                   : DTS XLL
  50. Format/Info                              : Digital Theater Systems
  51. Commercial name                          : DTS-HD Master Audio
  52. Codec ID                                 : A_DTS
  53. Duration                                 : 1 h 47 min
  54. Bit rate mode                            : Variable
  55. Bit rate                                 : 3 923 kb/s
  56. Channel(s)                               : 8 channels
  57. Channel layout                           : C L R LFE Lb Rb Lss Rss
  58. Sampling rate                            : 48.0 kHz
  59. Frame rate                               : 93.750 FPS (512 SPF)
  60. Bit depth                                : 24 bits
  61. Compression mode                         : Lossless
  62. Stream size                              : 2.94 GiB (13%)
  63. Title                                    : Moana.2016.2160p.BluRay.x265.10bit.SDR.DTS-HD.MA.TrueHD.7.1.Atmos-SWTYBLZ
  64. Language                                 : English
  65. Default                                  : No
  66. Forced                                   : No

  67. Audio #3
  68. ID                                       : 4
  69. Format                                   : AC-3
  70. Format/Info                              : Audio Coding 3
  71. Commercial name                          : Dolby Digital
  72. Codec ID                                 : A_AC3
  73. Duration                                 : 1 h 47 min
  74. Bit rate mode                            : Constant
  75. Bit rate                                 : 640 kb/s
  76. Channel(s)                               : 6 channels
  77. Channel layout                           : L R C LFE Ls Rs
  78. Sampling rate                            : 48.0 kHz
  79. Frame rate                               : 31.250 FPS (1536 SPF)
  80. Bit depth                                : 16 bits
  81. Compression mode                         : Lossy
  82. Stream size                              : 491 MiB (2%)
  83. Title                                    : Moana.2016.2160p.BluRay.x265.10bit.SDR.DTS-HD.MA.TrueHD.7.1.Atmos-SWTYBLZ
  84. Language                                 : English
  85. Service kind                             : Complete Main
  86. Default                                  : No
  87. Forced                                   : No

  88. Text #1
  89. ID                                       : 5
  90. Format                                   : UTF-8
  91. Codec ID                                 : S_TEXT/UTF8
  92. Codec ID/Info                            : UTF-8 Plain Text
  93. Duration                                 : 1 h 45 min
  94. Bit rate                                 : 44 b/s
  95. Count of elements                        : 1246
  96. Stream size                              : 34.7 KiB (0%)
  97. Title                                    : English-SRT
  98. Language                                 : English
  99. Default                                  : Yes
  100. Forced                                   : No

  101. Text #2
  102. ID                                       : 6
  103. Format                                   : UTF-8
  104. Codec ID                                 : S_TEXT/UTF8
  105. Codec ID/Info                            : UTF-8 Plain Text
  106. Duration                                 : 1 h 45 min
  107. Bit rate                                 : 47 b/s
  108. Count of elements                        : 1346
  109. Stream size                              : 36.6 KiB (0%)
  110. Title                                    : English-SDH-SRT
  111. Language                                 : English
  112. Default                                  : No
  113. Forced                                   : No

  114. Text #3
  115. ID                                       : 7
  116. Format                                   : PGS
  117. Muxing mode                              : zlib
  118. Codec ID                                 : S_HDMV/PGS
  119. Codec ID/Info                            : Picture based subtitle format used on BDs/HD-DVDs
  120. Duration                                 : 1 h 45 min
  121. Bit rate                                 : 32.0 kb/s
  122. Count of elements                        : 2868
  123. Stream size                              : 24.2 MiB (0%)
  124. Title                                    : English-PGS
  125. Language                                 : English
  126. Default                                  : No
  127. Forced                                   : No

  128. Text #4
  129. ID                                       : 8
  130. Format                                   : PGS
  131. Muxing mode                              : zlib
  132. Codec ID                                 : S_HDMV/PGS
  133. Codec ID/Info                            : Picture based subtitle format used on BDs/HD-DVDs
  134. Duration                                 : 1 h 45 min
  135. Bit rate                                 : 29.3 kb/s
  136. Count of elements                        : 2560
  137. Stream size                              : 22.1 MiB (0%)
  138. Title                                    : French-PGS
  139. Language                                 : French
  140. Default                                  : No
  141. Forced                                   : No

  142. Text #5
  143. ID                                       : 9
  144. Format                                   : PGS
  145. Muxing mode                              : zlib
  146. Codec ID                                 : S_HDMV/PGS
  147. Codec ID/Info                            : Picture based subtitle format used on BDs/HD-DVDs
  148. Duration                                 : 1 h 45 min
  149. Bit rate                                 : 26.0 kb/s
  150. Count of elements                        : 2432
  151. Stream size                              : 19.6 MiB (0%)
  152. Title                                    : Spanish-PGS
  153. Language                                 : Spanish
  154. Default                                  : No
  155. Forced                                   : No

  156. Text #6
  157. ID                                       : 10
  158. Format                                   : PGS
  159. Muxing mode                              : zlib
  160. Codec ID                                 : S_HDMV/PGS
  161. Codec ID/Info                            : Picture based subtitle format used on BDs/HD-DVDs
  162. Duration                                 : 1 h 45 min
  163. Bit rate                                 : 22.9 kb/s
  164. Count of elements                        : 2108
  165. Stream size                              : 17.3 MiB (0%)
  166. Title                                    : Japanese-PGS
  167. Language                                 : Japanese
  168. Default                                  : No
  169. Forced                                   : No

  170. Menu
  171. 00:00:00.000                             : en:Chapter 01
  172. 00:07:15.518                             : en:Chapter 02
  173. 00:11:59.635                             : en:Chapter 03
  174. 00:16:13.472                             : en:Chapter 04
  175. 00:21:29.162                             : en:Chapter 05
  176. 00:28:02.263                             : en:Chapter 06
  177. 00:32:10.887                             : en:Chapter 07
  178. 00:35:15.738                             : en:Chapter 08
  179. 00:41:36.452                             : en:Chapter 09
  180. 00:45:04.660                             : en:Chapter 10
  181. 00:49:10.155                             : en:Chapter 11
  182. 00:53:20.864                             : en:Chapter 12
  183. 00:57:33.158                             : en:Chapter 13
  184. 01:05:44.857                             : en:Chapter 14
  185. 01:10:45.908                             : en:Chapter 15
  186. 01:12:51.700                             : en:Chapter 16
  187. 01:15:41.787                             : en:Chapter 17
  188. 01:23:16.908                             : en:Chapter 18
  189. 01:29:50.760                             : en:Chapter 19
  190. 01:36:13.184                             : en:Chapter 20
复制代码

海洋奇缘/摩瓦娜 Moana.2016.2160p.BluRay.x265.10bit.SDR.DTS-HD.MA.TrueHD.7.1.Atmos-SWTYBLZ 22.35GB-2.png 海洋奇缘/摩瓦娜 Moana.2016.2160p.BluRay.x265.10bit.SDR.DTS-HD.MA.TrueHD.7.1.Atmos-SWTYBLZ 22.35GB-3.png 海洋奇缘/摩瓦娜 Moana.2016.2160p.BluRay.x265.10bit.SDR.DTS-HD.MA.TrueHD.7.1.Atmos-SWTYBLZ 22.35GB-4.png 海洋奇缘/摩瓦娜 Moana.2016.2160p.BluRay.x265.10bit.SDR.DTS-HD.MA.TrueHD.7.1.Atmos-SWTYBLZ 22.35GB-5.png 海洋奇缘/摩瓦娜 Moana.2016.2160p.BluRay.x265.10bit.SDR.DTS-HD.MA.TrueHD.7.1.Atmos-SWTYBLZ 22.35GB-6.png 海洋奇缘/摩瓦娜 Moana.2016.2160p.BluRay.x265.10bit.SDR.DTS-HD.MA.TrueHD.7.1.Atmos-SWTYBLZ 22.35GB-7.png 海洋奇缘/摩瓦娜 Moana.2016.2160p.BluRay.x265.10bit.SDR.DTS-HD.MA.TrueHD.7.1.Atmos-SWTYBLZ 22.35GB-8.png







回复

使用道具 举报

发表于 2019-10-28 09:42:01 | 显示全部楼层
楼主发贴辛苦了,谢谢楼主分享!我觉得蓝光电影网是注册对了!
回复 支持 反对

使用道具 举报

懒得打字嘛,点击右侧快捷回复 【右侧内容,后台自定义】
您需要登录后才可以回帖 登录 | 立即加入

本版积分规则

现在加入蓝光电影网,注册一个账号

QQ| 手机版|小黑屋| 蓝光电影网 |网站地图 

Copyright © 2015-2019 Comsenz Inc.  Template by 蓝光电影论坛 All Rights Reserved.

Powered by 蓝光电影网 X3.4

特别声明:本站所有资源均由网上收集而来,版权归原影音公司所有,如果侵犯了你的权益,请通知我们,我们会及时删除侵权内容.

快速回复 返回顶部 返回列表