找回密码

蓝光电影网

查看: 172|回复: 3

[10bit.HDR] 公主与青蛙 The.Princess.and.the.Frog.2009.2160p.UHD.BluRay.X265.10bit.HDR.TrueHD.7.1.Atmos-AViATOR 9.72GB

[复制链接]

 成长值: 23245

发表于 2019-10-25 16:40:42 | 显示全部楼层 |阅读模式
公主与青蛙 The.Princess.and.the.Frog.2009.2160p.UHD.BluRay.X265.10bit.HDR.TrueHD.7.1.Atmos-AViATOR 9.72GB-1.png

译  名 公主与青蛙 / The Frog Princess / 公主和青蛙 / 青蛙公主
片  名 The Princess and the Frog
年  代 2009
产  地 美国
类  别 喜剧 / 爱情 / 动画 / 歌舞
语  言 英语
上映日期 2009-12-11(美国)
IMDb评分  7.1/10 from 112853 users
IMDb链接  https://www.imdb.com/title/tt0780521
豆瓣评分 7.4/10 from 42394 users
豆瓣链接 https://movie.douban.com/subject/1949005/
片  长 97分钟
导  演 Ron Clements / John Musker
编  剧 Ron Clements / Rob Edwards / John Musker
主  演 Anika Noni Rose
       Bruno Campos
       Keith David
       Michael-Leon Wooley
       Jennifer Cody
       Peter Bartlett
       Jenifer Lewis
       John Goodman
       Terrence Howard


标  签 动画 | Disney | 美国 | 迪斯尼 | 童话 | 爱情 | 2009 | 音乐

简  介  

  蒂亚娜(Tiana)是个从不相信童话的女孩子,具有烹饪天赋的她最大的目标便是开一家属于自己的餐厅,多年来她一直努力赚钱,希望够自己的双手去实现梦想。可是就在她即将攒够钱的那天晚上,她遇到一只自称是王子马文(Naveen)的青蛙,他说自己是被影子人施了魔法并且许诺只要蒂亚娜吻他,那么他就可以帮蒂亚娜实现梦想。可是当蒂亚娜吻完青蛙,青蛙并没有变成马文王子,蒂亚娜却变成了一只青蛙。他们在躲避坏人的追赶时遇到喜欢演奏爵士乐的鳄鱼路易斯和荧火虫雷蒙,他们决定一起去密西西比河河口找女巫妈妈沃提帮忙。邪恶的影子人派出大批的影子杀手已经追上了这一行人,在紧要关头,妈妈沃提出现救了他们并且告诉了他们如果要变会人类,马文就必须去亲吻真正的公主夏洛特。可是此时马文在和蒂亚娜相处的过程中早已经爱上了这个执着的女孩子……
  本片无论从音乐和画面都融入大量新奥尔良元素,为影片创作音乐的兰迪·纽曼(Randy Newman)曾获奥斯卡奖,他本人就是新奥尔良人。

获奖情况  

  第82届奥斯卡金像奖(2010)
  最佳动画长片(提名) 约翰·马斯克 / 罗恩·克莱蒙兹
  最佳原创歌曲(提名) 兰迪·纽曼

  第67届金球奖(2010)
  电影类 最佳动画长片(提名)

  第37届动画安妮奖(2010)
  最佳动画长片(提名)
  最佳配音 Jennifer Cody
  最佳配音(提名) 詹妮弗·路易斯
  最佳艺术指导(提名) Ian Gooding
  最佳动画角色 埃里克·古德伯格
  最佳动画角色(提名) Andreas Deja / Bruce W. Smith
  最佳动画效果 James DeValera Mansfield

  第22届芝加哥影评人协会奖(2009)
  最佳动画片(提名)

  第12届美国青少年选择奖(2010)
  最佳动画片(提名)
  1. Video
  2. ID                                       : 1
  3. Format                                   : HEVC
  4. Format/Info                              : High Efficiency Video Coding
  5. Format profile                           : Main High@L4@High
  6. HDR format                               : SMPTE ST 2086, HDR10 compatible
  7. Codec ID                                 : V_MPEGH/ISO/HEVC
  8. Duration                                 : 1 h 37 min
  9. Bit rate                                 : 5 741 kb/s
  10. Width                                    : 3 840 pixels
  11. Height                                   : 2 160 pixels
  12. Display aspect ratio                     : 16:9
  13. Frame rate mode                          : Constant
  14. Frame rate                               : 23.976 (24000/1001) FPS
  15. Color space                              : YUV
  16. Chroma subsampling                       : 4:2:0 (Type 2)
  17. Bit depth                                : 10 bits
  18. Bits/(Pixel*Frame)                       : 0.029
  19. Stream size                              : 3.91 GiB (41%)
  20. Writing library                          : x265 3.27fc1f6ef2b96:[Windows][GCC 6.3.0][64 bit] 10bit
  21. Encoding settings                        : cpuid=1111039 / frame-threads=4 / numa-pools=20 / wpp / no-pmode / no-pme / no-psnr / no-ssim / log-level=2 / input-csp=1 / input-res=3840x2160 / interlace=0 / total-frames=140220 / level-idc=51 / high-tier=1 / uhd-bd=1 / ref=4 / no-allow-non-conformance / repeat-headers / annexb / aud / hrd / info / hash=0 / no-temporal-layers / no-open-gop / min-keyint=1 / keyint=24 / gop-lookahead=0 / bframes=4 / b-adapt=2 / b-pyramid / bframe-bias=0 / rc-lookahead=25 / lookahead-slices=4 / scenecut=40 / radl=0 / no-splice / no-intra-refresh / ctu=64 / min-cu-size=8 / rect / no-amp / max-tu-size=32 / tu-inter-depth=1 / tu-intra-depth=1 / limit-tu=0 / rdoq-level=2 / dynamic-rd=0.00 / no-ssim-rd / signhide / no-tskip / nr-intra=0 / nr-inter=0 / no-constrained-intra / no-strong-intra-smoothing / max-merge=3 / limit-refs=3 / limit-modes / me=3 / subme=3 / merange=57 / temporal-mvp / no-frame-dup / no-hme / weightp / no-weightb / no-analyze-src-pics / deblock=-3:-3 / no-sao / no-sao-non-deblock / rd=4 / selective-sao=0 / no-early-skip / rskip / no-fast-intra / no-tskip-fast / no-cu-lossless / no-b-intra / no-splitrd-skip / rdpenalty=0 / psy-rd=2.00 / psy-rdoq=1.00 / no-rd-refine / no-lossless / cbqpoffs=0 / crqpoffs=0 / rc=crf / crf=17.0 / qcomp=0.60 / qpstep=4 / stats-write=0 / stats-read=0 / vbv-maxrate=160000 / vbv-bufsize=160000 / vbv-init=0.9 / crf-max=0.0 / crf-min=0.0 / ipratio=1.40 / pbratio=1.30 / aq-mode=1 / aq-strength=1.00 / cutree / zone-count=0 / no-strict-cbr / qg-size=32 / no-rc-grain / qpmax=69 / qpmin=0 / no-const-vbv / sar=1 / overscan=0 / videoformat=5 / range=0 / colorprim=9 / transfer=16 / colormatrix=9 / chromaloc=1 / chromaloc-top=2 / chromaloc-bottom=2 / display-window=0 / master-display=G(13250,34500)B(7500,3000)R(34000,16000)WP(15635,16450)L(40000000,50) / cll=0,0 / min-luma=0 / max-luma=1023 / log2-max-poc-lsb=8 / vui-timing-info / vui-hrd-info / slices=1 / no-opt-qp-pps / no-opt-ref-list-length-pps / no-multi-pass-opt-rps / scenecut-bias=0.05 / no-opt-cu-delta-qp / no-aq-motion / hdr / hdr-opt / no-dhdr10-opt / no-idr-recovery-sei / analysis-reuse-level=5 / scale-factor=0 / refine-intra=0 / refine-inter=0 / refine-mv=1 / refine-ctu-distortion=0 / no-limit-sao / ctu-info=0 / no-lowpass-dct / refine-analysis-type=0 / copy-pic=1 / max-ausize-factor=1.0 / no-dynamic-refine / no-single-sei / no-hevc-aq / no-svt / no-field / qp-adaptation-range=1.00
  22. Default                                  : Yes
  23. Forced                                   : No
  24. Color range                              : Limited
  25. Color primaries                          : BT.2020
  26. Transfer characteristics                 : PQ
  27. Matrix coefficients                      : BT.2020 non-constant
  28. Mastering display color primaries        : Display P3
  29. Mastering display luminance              : min: 0.0050 cd/m2, max: 4000 cd/m2

  30. Audio #1
  31. ID                                       : 2
  32. Format                                   : MLP FBA 16-ch
  33. Format/Info                              : Meridian Lossless Packing FBA with 16-channel presentation
  34. Commercial name                          : Dolby TrueHD with Dolby Atmos
  35. Codec ID                                 : A_TRUEHD
  36. Duration                                 : 1 h 37 min
  37. Bit rate mode                            : Variable
  38. Bit rate                                 : 7 645 kb/s
  39. Maximum bit rate                         : 9 270 kb/s
  40. Channel(s)                               : 8 channels
  41. Channel layout                           : L R C LFE Ls Rs Lb Rb
  42. Sampling rate                            : 48.0 kHz
  43. Frame rate                               : 1 200.000 FPS (40 SPF)
  44. Compression mode                         : Lossless
  45. Stream size                              : 5.20 GiB (54%)
  46. Language                                 : English
  47. Default                                  : Yes
  48. Forced                                   : No
  49. Number of dynamic objects                : 13
  50. Bed channel count                        : 1 channel
  51. Bed channel configuration                : LFE

  52. Audio #2
  53. ID                                       : 3
  54. Format                                   : AC-3
  55. Format/Info                              : Audio Coding 3
  56. Commercial name                          : Dolby Digital
  57. Codec ID                                 : A_AC3
  58. Duration                                 : 1 h 37 min
  59. Bit rate mode                            : Constant
  60. Bit rate                                 : 640 kb/s
  61. Channel(s)                               : 6 channels
  62. Channel layout                           : L R C LFE Ls Rs
  63. Sampling rate                            : 48.0 kHz
  64. Frame rate                               : 31.250 FPS (1536 SPF)
  65. Bit depth                                : 16 bits
  66. Compression mode                         : Lossy
  67. Stream size                              : 446 MiB (5%)
  68. Language                                 : English
  69. Service kind                             : Complete Main
  70. Default                                  : No
  71. Forced                                   : No

  72. Text #1
  73. ID                                       : 4
  74. Format                                   : PGS
  75. Muxing mode                              : zlib
  76. Codec ID                                 : S_HDMV/PGS
  77. Codec ID/Info                            : Picture based subtitle format used on BDs/HD-DVDs
  78. Duration                                 : 1 h 33 min
  79. Bit rate                                 : 50.8 kb/s
  80. Count of elements                        : 3332
  81. Stream size                              : 33.8 MiB (0%)
  82. Title                                    : SDH
  83. Language                                 : English
  84. Default                                  : No
  85. Forced                                   : No

  86. Text #2
  87. ID                                       : 5
  88. Format                                   : PGS
  89. Muxing mode                              : zlib
  90. Codec ID                                 : S_HDMV/PGS
  91. Codec ID/Info                            : Picture based subtitle format used on BDs/HD-DVDs
  92. Duration                                 : 1 h 29 min
  93. Bit rate                                 : 44.5 kb/s
  94. Count of elements                        : 2668
  95. Stream size                              : 28.5 MiB (0%)
  96. Language                                 : French
  97. Default                                  : No
  98. Forced                                   : No

  99. Text #3
  100. ID                                       : 6
  101. Format                                   : PGS
  102. Muxing mode                              : zlib
  103. Codec ID                                 : S_HDMV/PGS
  104. Codec ID/Info                            : Picture based subtitle format used on BDs/HD-DVDs
  105. Duration                                 : 1 h 29 min
  106. Bit rate                                 : 40.4 kb/s
  107. Count of elements                        : 2636
  108. Stream size                              : 25.8 MiB (0%)
  109. Language                                 : Spanish
  110. Default                                  : No
  111. Forced                                   : No

  112. Menu
  113. 00:00:00.000                             : en:Chapter 01
  114. 00:03:58.446                             : en:Chapter 02
  115. 00:07:16.769                             : en:Chapter 03
  116. 00:12:05.975                             : en:Chapter 04
  117. 00:17:46.148                             : en:Chapter 05
  118. 00:22:05.157                             : en:Chapter 06
  119. 00:26:47.856                             : en:Chapter 07
  120. 00:31:22.547                             : en:Chapter 08
  121. 00:35:49.689                             : en:Chapter 09
  122. 00:41:12.720                             : en:Chapter 10
  123. 00:44:31.210                             : en:Chapter 11
  124. 00:50:38.452                             : en:Chapter 12
  125. 00:54:53.290                             : en:Chapter 13
  126. 01:00:09.230                             : en:Chapter 14
  127. 01:07:22.163                             : en:Chapter 15
  128. 01:13:35.119                             : en:Chapter 16
  129. 01:21:51.072                             : en:Chapter 17
  130. 01:24:24.434                             : en:Chapter 18
  131. 01:27:06.930                             : en:Chapter 19
  132. 01:30:28.965                             : en:Chapter 20
复制代码

公主与青蛙 The.Princess.and.the.Frog.2009.2160p.UHD.BluRay.X265.10bit.HDR.TrueHD.7.1.Atmos-AViATOR 9.72GB-2.png 公主与青蛙 The.Princess.and.the.Frog.2009.2160p.UHD.BluRay.X265.10bit.HDR.TrueHD.7.1.Atmos-AViATOR 9.72GB-3.png 公主与青蛙 The.Princess.and.the.Frog.2009.2160p.UHD.BluRay.X265.10bit.HDR.TrueHD.7.1.Atmos-AViATOR 9.72GB-4.png







回复

使用道具 举报

发表于 2019-10-25 22:45:12 | 显示全部楼层
确实很不错!不过感觉很面熟,原来是上了颜色的黑人花木兰!非常感谢热心分享!!!!
回复 支持 反对

使用道具 举报

发表于 2019-10-27 17:47:13 | 显示全部楼层

既然你诚信诚意的推荐了,那我就勉为其难的看看吧!蓝光电影网不走平凡路。
回复 支持 反对

使用道具 举报

 成长值: 780

发表于 2019-10-30 11:06:01 | 显示全部楼层

楼主太厉害了!楼主,电影应该很好看我觉得蓝光电影网真是个好地方!
回复 支持 反对

使用道具 举报

懒得打字嘛,点击右侧快捷回复 【右侧内容,后台自定义】
您需要登录后才可以回帖 登录 | 立即加入

本版积分规则

现在加入蓝光电影网,注册一个账号

QQ| 手机版|小黑屋| 蓝光电影网 |网站地图 

Copyright © 2015-2019 Comsenz Inc.  Template by 蓝光电影论坛 All Rights Reserved.

Powered by 蓝光电影网 X3.4

特别声明:本站所有资源均由网上收集而来,版权归原影音公司所有,如果侵犯了你的权益,请通知我们,我们会及时删除侵权内容.

快速回复 返回顶部 返回列表