找回密码

蓝光电影网

查看: 289|回复: 3

[8bit.SDR] 红色警探/冲出生死线 Red.Heat.1988.2160p.BluRay.x264.8bit.SDR.DTS-HD.MA.5.1-SWTYBLZ 45.49GB

[复制链接]

 成长值: 23245

发表于 2019-10-23 22:15:23 | 显示全部楼层 |阅读模式
红色警探/冲出生死线 Red.Heat.1988.2160p.BluRay.x264.8bit.SDR.DTS-HD.MA.5.1-SWTYBLZ 45.49GB-1.png

译  名 红色警探 / 冲出生死线 / 红场特警 / 魔鬼红星
片  名 Red Heat
年  代 1988
产  地 美国
类  别 喜剧 / 动作 / 惊悚 / 犯罪
语  言 英语 / 俄语
上映日期 1988-06-17
IMDb评分  6.1/10 from 58995 users
IMDb链接  http://www.imdb.com/title/tt0095963
豆瓣评分 6.4/10 from 1910 users
豆瓣链接 https://movie.douban.com/subject/1296875/
片  长 104 分钟
导  演 沃尔特·希尔 Walter Hill
编  剧 Harry Kleiner / 沃尔特·希尔 Walter Hill
主  演 阿诺·施瓦辛格 Arnold Schwarzenegger
      詹姆斯·贝鲁什 James Belushi
      彼得·博伊尔 Peter Boyle
      吉娜·格申 Gina Gershon
      劳伦斯·菲什伯恩 Laurence Fishburne


标  签 动作 | 美国 | 施瓦辛格 | 美国电影 | 1988 | 阿诺德·施瓦辛格 | 红场特警 | 警匪

简  介  

  八十年代,苏联国内的毒枭从美国大量进口毒品,上尉德戈(阿诺·施瓦辛格 Arnold Schwarzenegger 饰)奉命捉拿乔治亚毒贩集团,然而在围捕行动中,德戈战友身亡,毒贩头目逃脱出国。不久,在美国芝加哥,苏联毒贩维特落网,美苏两国达成协议,德戈由莫斯科赴美押送维特回国,美国方面派出警探雷塞克(詹姆斯·贝鲁什 James Belushi 饰)担任其助手和翻译。不料维特再次在同伙的配合下成功逃脱,德戈至此不得不向美国方面吐露了维特的真实身份,并与雷塞克合力追踪维特。苏美两国的差异在德戈和雷塞克身上不时体现,然而两员悍将很快弥合差异,精诚合作追索毒枭……

  1. Video
  2. ID                                       : 1
  3. Format                                   : AVC
  4. Format/Info                              : Advanced Video Codec
  5. Format profile                           : High@L4
  6. Format settings                          : CABAC / 5 Ref Frames
  7. Format settings, CABAC                   : Yes
  8. Format settings, Reference frames        : 5 frames
  9. Codec ID                                 : V_MPEG4/ISO/AVC
  10. Duration                                 : 1 h 44 min
  11. Bit rate                                 : 56.1 Mb/s
  12. Width                                    : 3 840 pixels
  13. Height                                   : 2 076 pixels
  14. Display aspect ratio                     : 1.85:1
  15. Frame rate mode                          : Constant
  16. Frame rate                               : 24.000 FPS
  17. Color space                              : YUV
  18. Chroma subsampling                       : 4:2:0
  19. Bit depth                                : 8 bits
  20. Scan type                                : Progressive
  21. Bits/(Pixel*Frame)                       : 0.293
  22. Stream size                              : 41.5 GiB (92%)
  23. Title                                    : Red.Heat.1988.2160p.BluRay.x264.8bit.SDR.DTS-HD.MA.5.1-SWTYBLZ
  24. Writing library                          : x264 core 157 r2935 545de2f
  25. Encoding settings                        : cabac=1 / ref=5 / deblock=1:-1:-1 / analyse=0x3:0x113 / me=umh / subme=10 / psy=1 / psy_rd=1.00:0.15 / mixed_ref=1 / me_range=48 / chroma_me=1 / trellis=2 / 8x8dct=1 / cqm=0 / deadzone=21,11 / fast_pskip=1 / chroma_qp_offset=-3 / threads=48 / lookahead_threads=4 / sliced_threads=0 / nr=0 / decimate=0 / interlaced=0 / bluray_compat=0 / constrained_intra=0 / bframes=3 / b_pyramid=2 / b_adapt=2 / b_bias=0 / direct=3 / weightb=1 / open_gop=0 / weightp=2 / keyint=250 / keyint_min=24 / scenecut=40 / intra_refresh=0 / rc_lookahead=50 / rc=crf / mbtree=1 / crf=22.0 / qcomp=0.60 / qpmin=0 / qpmax=69 / qpstep=4 / ip_ratio=1.40 / aq=1:1.00
  26. Language                                 : English
  27. Default                                  : Yes
  28. Forced                                   : No

  29. Audio #1
  30. ID                                       : 2
  31. Format                                   : DTS XLL
  32. Format/Info                              : Digital Theater Systems
  33. Commercial name                          : DTS-HD Master Audio
  34. Codec ID                                 : A_DTS
  35. Duration                                 : 1 h 44 min
  36. Bit rate mode                            : Variable
  37. Bit rate                                 : 4 275 kb/s
  38. Channel(s)                               : 6 channels
  39. Channel layout                           : C L R Ls Rs LFE
  40. Sampling rate                            : 48.0 kHz
  41. Frame rate                               : 93.750 FPS (512 SPF)
  42. Bit depth                                : 24 bits
  43. Compression mode                         : Lossless
  44. Stream size                              : 3.11 GiB (7%)
  45. Title                                    : Red.Heat.1988.2160p.BluRay.x264.8bit.SDR.DTS-HD.MA.5.1-SWTYBLZ
  46. Language                                 : English
  47. Default                                  : Yes
  48. Forced                                   : No

  49. Audio #2
  50. ID                                       : 3
  51. Format                                   : AC-3
  52. Format/Info                              : Audio Coding 3
  53. Commercial name                          : Dolby Digital
  54. Codec ID                                 : A_AC3
  55. Duration                                 : 1 h 44 min
  56. Bit rate mode                            : Constant
  57. Bit rate                                 : 640 kb/s
  58. Channel(s)                               : 6 channels
  59. Channel layout                           : L R C LFE Ls Rs
  60. Sampling rate                            : 48.0 kHz
  61. Frame rate                               : 31.250 FPS (1536 SPF)
  62. Bit depth                                : 16 bits
  63. Compression mode                         : Lossy
  64. Stream size                              : 476 MiB (1%)
  65. Title                                    : Red.Heat.1988.2160p.BluRay.x264.8bit.SDR.DTS-HD.MA.5.1-SWTYBLZ
  66. Language                                 : English
  67. Service kind                             : Complete Main
  68. Default                                  : No
  69. Forced                                   : No

  70. Text #1
  71. ID                                       : 4
  72. Format                                   : UTF-8
  73. Codec ID                                 : S_TEXT/UTF8
  74. Codec ID/Info                            : UTF-8 Plain Text
  75. Duration                                 : 56 min 36 s
  76. Bit rate                                 : 6 b/s
  77. Count of elements                        : 90
  78. Stream size                              : 2.90 KiB (0%)
  79. Title                                    : English-FORCED-SRT
  80. Language                                 : English
  81. Default                                  : Yes
  82. Forced                                   : No

  83. Text #2
  84. ID                                       : 5
  85. Format                                   : UTF-8
  86. Codec ID                                 : S_TEXT/UTF8
  87. Codec ID/Info                            : UTF-8 Plain Text
  88. Duration                                 : 1 h 36 min
  89. Bit rate                                 : 59 b/s
  90. Count of elements                        : 1129
  91. Stream size                              : 42.2 KiB (0%)
  92. Title                                    : English-SRT
  93. Language                                 : English
  94. Default                                  : No
  95. Forced                                   : No

  96. Text #3
  97. ID                                       : 6
  98. Format                                   : UTF-8
  99. Codec ID                                 : S_TEXT/UTF8
  100. Codec ID/Info                            : UTF-8 Plain Text
  101. Duration                                 : 1 h 39 min
  102. Bit rate                                 : 64 b/s
  103. Count of elements                        : 1279
  104. Stream size                              : 46.7 KiB (0%)
  105. Title                                    : English-SDH-SRT
  106. Language                                 : English
  107. Default                                  : No
  108. Forced                                   : No

  109. Text #4
  110. ID                                       : 7
  111. Format                                   : PGS
  112. Muxing mode                              : zlib
  113. Codec ID                                 : S_HDMV/PGS
  114. Codec ID/Info                            : Picture based subtitle format used on BDs/HD-DVDs
  115. Duration                                 : 1 h 39 min
  116. Bit rate                                 : 32.9 kb/s
  117. Count of elements                        : 2558
  118. Stream size                              : 23.4 MiB (0%)
  119. Title                                    : English-PGS
  120. Language                                 : English
  121. Default                                  : No
  122. Forced                                   : No

  123. Text #5
  124. ID                                       : 8
  125. Format                                   : PGS
  126. Muxing mode                              : zlib
  127. Codec ID                                 : S_HDMV/PGS
  128. Codec ID/Info                            : Picture based subtitle format used on BDs/HD-DVDs
  129. Duration                                 : 1 h 40 min
  130. Bit rate                                 : 21.3 kb/s
  131. Count of elements                        : 2158
  132. Stream size                              : 15.3 MiB (0%)
  133. Title                                    : French-PGS
  134. Language                                 : French
  135. Default                                  : No
  136. Forced                                   : No

  137. Text #6
  138. ID                                       : 9
  139. Format                                   : PGS
  140. Muxing mode                              : zlib
  141. Codec ID                                 : S_HDMV/PGS
  142. Codec ID/Info                            : Picture based subtitle format used on BDs/HD-DVDs
  143. Duration                                 : 1 h 40 min
  144. Bit rate                                 : 26.3 kb/s
  145. Count of elements                        : 1680
  146. Stream size                              : 18.9 MiB (0%)
  147. Title                                    : German-PGS
  148. Language                                 : German
  149. Default                                  : No
  150. Forced                                   : No

  151. Menu
  152. 00:00:00.000                             : en:Chapter 01
  153. 00:07:50.458                             : en:Chapter 02
  154. 00:19:23.000                             : en:Chapter 03
  155. 00:26:07.583                             : en:Chapter 04
  156. 00:35:07.500                             : en:Chapter 05
  157. 00:45:06.000                             : en:Chapter 06
  158. 00:54:04.000                             : en:Chapter 07
  159. 01:02:52.500                             : en:Chapter 08
  160. 01:12:15.416                             : en:Chapter 09
  161. 01:21:59.458                             : en:Chapter 10
  162. 01:28:36.833                             : en:Chapter 11
  163. 01:37:27.000                             : en:Chapter 12
复制代码

红色警探/冲出生死线 Red.Heat.1988.2160p.BluRay.x264.8bit.SDR.DTS-HD.MA.5.1-SWTYBLZ 45.49GB-2.png 红色警探/冲出生死线 Red.Heat.1988.2160p.BluRay.x264.8bit.SDR.DTS-HD.MA.5.1-SWTYBLZ 45.49GB-3.png 红色警探/冲出生死线 Red.Heat.1988.2160p.BluRay.x264.8bit.SDR.DTS-HD.MA.5.1-SWTYBLZ 45.49GB-4.png 红色警探/冲出生死线 Red.Heat.1988.2160p.BluRay.x264.8bit.SDR.DTS-HD.MA.5.1-SWTYBLZ 45.49GB-5.png 红色警探/冲出生死线 Red.Heat.1988.2160p.BluRay.x264.8bit.SDR.DTS-HD.MA.5.1-SWTYBLZ 45.49GB-6.png 红色警探/冲出生死线 Red.Heat.1988.2160p.BluRay.x264.8bit.SDR.DTS-HD.MA.5.1-SWTYBLZ 45.49GB-7.png 红色警探/冲出生死线 Red.Heat.1988.2160p.BluRay.x264.8bit.SDR.DTS-HD.MA.5.1-SWTYBLZ 45.49GB-8.png







回复

使用道具 举报

发表于 2019-10-23 23:03:11 | 显示全部楼层
谢谢楼主分享
回复 支持 反对

使用道具 举报

发表于 2019-10-23 23:05:07 | 显示全部楼层
非常精彩,谢谢楼主分享!
回复 支持 反对

使用道具 举报

发表于 2019-10-24 07:43:47 | 显示全部楼层
谢谢分享!!!!!!!
回复

使用道具 举报

懒得打字嘛,点击右侧快捷回复 【右侧内容,后台自定义】
您需要登录后才可以回帖 登录 | 立即加入

本版积分规则

现在加入蓝光电影网,注册一个账号

QQ| 手机版|小黑屋| 蓝光电影网 |网站地图 

Copyright © 2015-2019 Comsenz Inc.  Template by 蓝光电影论坛 All Rights Reserved.

Powered by 蓝光电影网 X3.4

特别声明:本站所有资源均由网上收集而来,版权归原影音公司所有,如果侵犯了你的权益,请通知我们,我们会及时删除侵权内容.

快速回复 返回顶部 返回列表