找回密码

蓝光电影网

查看: 316|回复: 4

[8bit.SDR] 007:大破量子危机/007大破量子危机 Quantum.of.Solace.2008.2160p.BluRay.x264.8bit.SDR.DTS-HD.MA.5.1-SWTYBLZ 28.78GB

[复制链接]

 成长值: 23245

发表于 2019-10-20 17:01:52 | 显示全部楼层 |阅读模式
007:大破量子危机/007大破量子危机 Quantum.of.Solace.2008.2160p.BluRay.x264.8bit.SDR.DTS-HD.MA.5.1-SWTYBLZ 28.78GB-1.png

译  名 007:大破量子危机 / 007大破量子危机 / 007系列22:大破量子危机 / 007:量子危机(台) / 余温之恋 / 宽慰量子 / 新铁金刚之量子杀机(港) / 邦德22
片  名 Quantum of Solace
年  代 2008
产  地 英国 / 美国
类  别 动作 / 惊悚 / 冒险
语  言 英语 / 意大利语 / 法语 / 西班牙语 / 瑞士德语 / 德语
上映日期 2008-10-31(英国) / 2008-11-05(中国大陆) / 2008-11-14(美国)
IMDb评分  6.6/10 from 380807 users
IMDb链接  http://www.imdb.com/title/tt0830515
豆瓣评分 6.5/10 from 80293 users
豆瓣链接 https://movie.douban.com/subject/1946882/
片  长 106 分钟
导  演 Marc Forster
编  剧 Paul Haggis / Neal Purvis / Robert Wade
主  演 Daniel Craig
       Judi Dench
       Olga Kurylenko
       Mathieu Amalric
       Gemma Arterton


标  签 007 | 动作 | 美国 | 特工 | 英国 | 美国电影 | 2008 | DanielCraig

简  介  

  紧接前一集《皇家赌场》的剧情,由于爱人维斯佩的背叛,邦德(丹尼尔·克雷格 Daniel Craig 饰)的怒火被彻底激发,甚至在执行最新任务时都不得不尽量克制个人感情,以免把这次任务升级为个人恩怨。通过与M(朱迪·丹奇 Judi Dench 饰)对白先生(加斯帕·克里斯 滕森 Jesper Christensen 饰)的审问,得知维斯佩是被一个难以想象的犯罪组织所要挟。为了能查清楚这个组织的情况,邦德根据手上的线索顺藤摸瓜,最终把目标锁定在了一个名叫格林(马修·阿马立克 Mathieu Amalric 饰)的商人身上。经过不断的调查,最终发现了这个犯罪组织的惊天阴谋,想控制全球的自然资源。在随时可能遭遇背叛、谋杀和骗局的情况下,邦德再次出击……最终成功挫败了这个惊天阴谋。
  在这一集的片头,性感火辣的舞女轮廓将回归这部经典系列电影的片头。
  1. Video
  2. ID                                       : 1
  3. Format                                   : AVC
  4. Format/Info                              : Advanced Video Codec
  5. Format profile                           : High@L4
  6. Format settings                          : CABAC / 5 Ref Frames
  7. Format settings, CABAC                   : Yes
  8. Format settings, Reference frames        : 5 frames
  9. Codec ID                                 : V_MPEG4/ISO/AVC
  10. Duration                                 : 1 h 46 min
  11. Bit rate                                 : 33.7 Mb/s
  12. Width                                    : 3 840 pixels
  13. Height                                   : 1 600 pixels
  14. Display aspect ratio                     : 2.40:1
  15. Frame rate mode                          : Constant
  16. Frame rate                               : 23.976 (24000/1001) FPS
  17. Color space                              : YUV
  18. Chroma subsampling                       : 4:2:0
  19. Bit depth                                : 8 bits
  20. Scan type                                : Progressive
  21. Bits/(Pixel*Frame)                       : 0.229
  22. Stream size                              : 25.0 GiB (87%)
  23. Title                                    : Quantum.of.Solace.2008.2160p.BluRay.x264.8bit.SDR.DTS-HD.MA.5.1-SWTYBLZ
  24. Writing library                          : x264 core 157 r2935 545de2f
  25. Encoding settings                        : cabac=1 / ref=5 / deblock=1:-1:-1 / analyse=0x3:0x113 / me=umh / subme=10 / psy=1 / psy_rd=1.00:0.15 / mixed_ref=1 / me_range=48 / chroma_me=1 / trellis=2 / 8x8dct=1 / cqm=0 / deadzone=21,11 / fast_pskip=1 / chroma_qp_offset=-3 / threads=50 / lookahead_threads=4 / sliced_threads=0 / nr=0 / decimate=0 / interlaced=0 / bluray_compat=0 / constrained_intra=0 / bframes=3 / b_pyramid=2 / b_adapt=2 / b_bias=0 / direct=3 / weightb=1 / open_gop=0 / weightp=2 / keyint=250 / keyint_min=23 / scenecut=40 / intra_refresh=0 / rc_lookahead=50 / rc=crf / mbtree=1 / crf=18.0 / qcomp=0.60 / qpmin=0 / qpmax=69 / qpstep=4 / ip_ratio=1.40 / aq=1:1.00
  26. Language                                 : English
  27. Default                                  : Yes
  28. Forced                                   : No

  29. Audio #1
  30. ID                                       : 2
  31. Format                                   : DTS XLL
  32. Format/Info                              : Digital Theater Systems
  33. Commercial name                          : DTS-HD Master Audio
  34. Codec ID                                 : A_DTS
  35. Duration                                 : 1 h 46 min
  36. Bit rate mode                            : Variable
  37. Bit rate                                 : 4 094 kb/s
  38. Channel(s)                               : 6 channels
  39. Channel layout                           : C L R Ls Rs LFE
  40. Sampling rate                            : 48.0 kHz
  41. Frame rate                               : 93.750 FPS (512 SPF)
  42. Bit depth                                : 24 bits
  43. Compression mode                         : Lossless
  44. Stream size                              : 3.04 GiB (11%)
  45. Title                                    : Quantum.of.Solace.2008.2160p.BluRay.x264.8bit.SDR.DTS-HD.MA.5.1-SWTYBLZ
  46. Language                                 : English
  47. Default                                  : Yes
  48. Forced                                   : No

  49. Audio #2
  50. ID                                       : 3
  51. Format                                   : AC-3
  52. Format/Info                              : Audio Coding 3
  53. Commercial name                          : Dolby Digital
  54. Codec ID                                 : A_AC3
  55. Duration                                 : 1 h 46 min
  56. Bit rate mode                            : Constant
  57. Bit rate                                 : 640 kb/s
  58. Channel(s)                               : 6 channels
  59. Channel layout                           : L R C LFE Ls Rs
  60. Sampling rate                            : 48.0 kHz
  61. Frame rate                               : 31.250 FPS (1536 SPF)
  62. Bit depth                                : 16 bits
  63. Compression mode                         : Lossy
  64. Stream size                              : 486 MiB (2%)
  65. Title                                    : Quantum.of.Solace.2008.2160p.BluRay.x264.8bit.SDR.DTS-HD.MA.5.1-SWTYBLZ
  66. Language                                 : English
  67. Service kind                             : Complete Main
  68. Default                                  : No
  69. Forced                                   : No

  70. Text #1
  71. ID                                       : 4
  72. Format                                   : UTF-8
  73. Codec ID                                 : S_TEXT/UTF8
  74. Codec ID/Info                            : UTF-8 Plain Text
  75. Duration                                 : 1 h 37 min
  76. Bit rate                                 : 46 b/s
  77. Count of elements                        : 1017
  78. Stream size                              : 33.2 KiB (0%)
  79. Title                                    : English-SRT
  80. Language                                 : English
  81. Default                                  : Yes
  82. Forced                                   : No

  83. Text #2
  84. ID                                       : 5
  85. Format                                   : UTF-8
  86. Codec ID                                 : S_TEXT/UTF8
  87. Codec ID/Info                            : UTF-8 Plain Text
  88. Duration                                 : 1 h 40 min
  89. Bit rate                                 : 49 b/s
  90. Count of elements                        : 1189
  91. Stream size                              : 36.7 KiB (0%)
  92. Title                                    : English-SDH-SRT
  93. Language                                 : English
  94. Default                                  : No
  95. Forced                                   : No

  96. Text #3
  97. ID                                       : 6
  98. Format                                   : PGS
  99. Muxing mode                              : zlib
  100. Codec ID                                 : S_HDMV/PGS
  101. Codec ID/Info                            : Picture based subtitle format used on BDs/HD-DVDs
  102. Duration                                 : 1 h 40 min
  103. Bit rate                                 : 33.1 kb/s
  104. Count of elements                        : 2378
  105. Stream size                              : 23.8 MiB (0%)
  106. Title                                    : English-PGS
  107. Language                                 : English
  108. Default                                  : No
  109. Forced                                   : No

  110. Text #4
  111. ID                                       : 7
  112. Format                                   : PGS
  113. Muxing mode                              : zlib
  114. Codec ID                                 : S_HDMV/PGS
  115. Codec ID/Info                            : Picture based subtitle format used on BDs/HD-DVDs
  116. Duration                                 : 1 h 43 min
  117. Bit rate                                 : 26.0 kb/s
  118. Count of elements                        : 1918
  119. Stream size                              : 19.3 MiB (0%)
  120. Title                                    : Spanish-PGS
  121. Language                                 : Spanish
  122. Default                                  : No
  123. Forced                                   : No

  124. Text #5
  125. ID                                       : 8
  126. Format                                   : PGS
  127. Muxing mode                              : zlib
  128. Codec ID                                 : S_HDMV/PGS
  129. Codec ID/Info                            : Picture based subtitle format used on BDs/HD-DVDs
  130. Duration                                 : 1 h 43 min
  131. Bit rate                                 : 22.4 kb/s
  132. Count of elements                        : 2004
  133. Stream size                              : 16.7 MiB (0%)
  134. Title                                    : French-PGS
  135. Language                                 : French
  136. Default                                  : No
  137. Forced                                   : No

  138. Text #6
  139. ID                                       : 9
  140. Format                                   : PGS
  141. Muxing mode                              : zlib
  142. Codec ID                                 : S_HDMV/PGS
  143. Codec ID/Info                            : Picture based subtitle format used on BDs/HD-DVDs
  144. Duration                                 : 1 h 39 min
  145. Bit rate                                 : 23.7 kb/s
  146. Count of elements                        : 1898
  147. Stream size                              : 16.8 MiB (0%)
  148. Title                                    : Spanish-PGS
  149. Language                                 : Spanish
  150. Default                                  : No
  151. Forced                                   : No

  152. Text #7
  153. ID                                       : 10
  154. Format                                   : PGS
  155. Muxing mode                              : zlib
  156. Codec ID                                 : S_HDMV/PGS
  157. Codec ID/Info                            : Picture based subtitle format used on BDs/HD-DVDs
  158. Duration                                 : 1 h 43 min
  159. Bit rate                                 : 24.7 kb/s
  160. Count of elements                        : 1946
  161. Stream size                              : 18.4 MiB (0%)
  162. Title                                    : Danish-PGS
  163. Language                                 : Danish
  164. Default                                  : No
  165. Forced                                   : No

  166. Text #8
  167. ID                                       : 11
  168. Format                                   : PGS
  169. Muxing mode                              : zlib
  170. Codec ID                                 : S_HDMV/PGS
  171. Codec ID/Info                            : Picture based subtitle format used on BDs/HD-DVDs
  172. Duration                                 : 1 h 43 min
  173. Bit rate                                 : 27.4 kb/s
  174. Count of elements                        : 2008
  175. Stream size                              : 20.4 MiB (0%)
  176. Title                                    : Dutch-PGS
  177. Language                                 : Dutch
  178. Default                                  : No
  179. Forced                                   : No

  180. Text #9
  181. ID                                       : 12
  182. Format                                   : PGS
  183. Muxing mode                              : zlib
  184. Codec ID                                 : S_HDMV/PGS
  185. Codec ID/Info                            : Picture based subtitle format used on BDs/HD-DVDs
  186. Duration                                 : 1 h 39 min
  187. Bit rate                                 : 23.0 kb/s
  188. Count of elements                        : 2000
  189. Stream size                              : 16.3 MiB (0%)
  190. Title                                    : Finnish-PGS
  191. Language                                 : Finnish
  192. Default                                  : No
  193. Forced                                   : No

  194. Text #10
  195. ID                                       : 13
  196. Format                                   : PGS
  197. Muxing mode                              : zlib
  198. Codec ID                                 : S_HDMV/PGS
  199. Codec ID/Info                            : Picture based subtitle format used on BDs/HD-DVDs
  200. Duration                                 : 1 h 39 min
  201. Bit rate                                 : 28.1 kb/s
  202. Count of elements                        : 2006
  203. Stream size                              : 20.0 MiB (0%)
  204. Title                                    : German-PGS
  205. Language                                 : German
  206. Default                                  : No
  207. Forced                                   : No

  208. Text #11
  209. ID                                       : 14
  210. Format                                   : PGS
  211. Muxing mode                              : zlib
  212. Codec ID                                 : S_HDMV/PGS
  213. Codec ID/Info                            : Picture based subtitle format used on BDs/HD-DVDs
  214. Duration                                 : 1 h 37 min
  215. Bit rate                                 : 26.2 kb/s
  216. Count of elements                        : 1982
  217. Stream size                              : 18.3 MiB (0%)
  218. Title                                    : Italian-PGS
  219. Language                                 : Italian
  220. Default                                  : No
  221. Forced                                   : No

  222. Text #12
  223. ID                                       : 15
  224. Format                                   : PGS
  225. Muxing mode                              : zlib
  226. Codec ID                                 : S_HDMV/PGS
  227. Codec ID/Info                            : Picture based subtitle format used on BDs/HD-DVDs
  228. Duration                                 : 1 h 39 min
  229. Bit rate                                 : 22.5 kb/s
  230. Count of elements                        : 2006
  231. Stream size                              : 15.9 MiB (0%)
  232. Title                                    : Norwegian-PGS
  233. Language                                 : Norwegian
  234. Default                                  : No
  235. Forced                                   : No

  236. Text #13
  237. ID                                       : 16
  238. Format                                   : PGS
  239. Muxing mode                              : zlib
  240. Codec ID                                 : S_HDMV/PGS
  241. Codec ID/Info                            : Picture based subtitle format used on BDs/HD-DVDs
  242. Duration                                 : 1 h 39 min
  243. Bit rate                                 : 24.1 kb/s
  244. Count of elements                        : 1980
  245. Stream size                              : 17.2 MiB (0%)
  246. Title                                    : Swedish-PGS
  247. Language                                 : Swedish
  248. Default                                  : No
  249. Forced                                   : No

  250. Text #14
  251. ID                                       : 17
  252. Format                                   : PGS
  253. Muxing mode                              : zlib
  254. Codec ID                                 : S_HDMV/PGS
  255. Codec ID/Info                            : Picture based subtitle format used on BDs/HD-DVDs
  256. Duration                                 : 1 h 43 min
  257. Bit rate                                 : 26.4 kb/s
  258. Count of elements                        : 2002
  259. Stream size                              : 19.7 MiB (0%)
  260. Title                                    : Chinese-PGS
  261. Language                                 : Chinese
  262. Default                                  : No
  263. Forced                                   : No

  264. Text #15
  265. ID                                       : 18
  266. Format                                   : PGS
  267. Muxing mode                              : zlib
  268. Codec ID                                 : S_HDMV/PGS
  269. Codec ID/Info                            : Picture based subtitle format used on BDs/HD-DVDs
  270. Duration                                 : 1 h 39 min
  271. Bit rate                                 : 24.6 kb/s
  272. Count of elements                        : 2006
  273. Stream size                              : 17.4 MiB (0%)
  274. Title                                    : Czech-PGS
  275. Language                                 : Czech
  276. Default                                  : No
  277. Forced                                   : No

  278. Text #16
  279. ID                                       : 19
  280. Format                                   : PGS
  281. Muxing mode                              : zlib
  282. Codec ID                                 : S_HDMV/PGS
  283. Codec ID/Info                            : Picture based subtitle format used on BDs/HD-DVDs
  284. Duration                                 : 1 h 39 min
  285. Bit rate                                 : 23.0 kb/s
  286. Count of elements                        : 2006
  287. Stream size                              : 16.3 MiB (0%)
  288. Title                                    : Hungarian-PGS
  289. Language                                 : Hungarian
  290. Default                                  : No
  291. Forced                                   : No

  292. Text #17
  293. ID                                       : 20
  294. Format                                   : PGS
  295. Muxing mode                              : zlib
  296. Codec ID                                 : S_HDMV/PGS
  297. Codec ID/Info                            : Picture based subtitle format used on BDs/HD-DVDs
  298. Duration                                 : 1 h 43 min
  299. Bit rate                                 : 14.7 kb/s
  300. Count of elements                        : 2022
  301. Stream size                              : 10.9 MiB (0%)
  302. Title                                    : Korean-PGS
  303. Language                                 : Korean
  304. Default                                  : No
  305. Forced                                   : No

  306. Text #18
  307. ID                                       : 21
  308. Format                                   : PGS
  309. Muxing mode                              : zlib
  310. Codec ID                                 : S_HDMV/PGS
  311. Codec ID/Info                            : Picture based subtitle format used on BDs/HD-DVDs
  312. Duration                                 : 1 h 43 min
  313. Bit rate                                 : 18.9 kb/s
  314. Count of elements                        : 2002
  315. Stream size                              : 14.0 MiB (0%)
  316. Title                                    : Chinese-PGS
  317. Language                                 : Chinese
  318. Default                                  : No
  319. Forced                                   : No

  320. Text #19
  321. ID                                       : 22
  322. Format                                   : PGS
  323. Muxing mode                              : zlib
  324. Codec ID                                 : S_HDMV/PGS
  325. Codec ID/Info                            : Picture based subtitle format used on BDs/HD-DVDs
  326. Duration                                 : 1 h 39 min
  327. Bit rate                                 : 23.7 kb/s
  328. Count of elements                        : 2022
  329. Stream size                              : 16.8 MiB (0%)
  330. Title                                    : Polish-PGS
  331. Language                                 : Polish
  332. Default                                  : No
  333. Forced                                   : No

  334. Text #20
  335. ID                                       : 23
  336. Format                                   : PGS
  337. Muxing mode                              : zlib
  338. Codec ID                                 : S_HDMV/PGS
  339. Codec ID/Info                            : Picture based subtitle format used on BDs/HD-DVDs
  340. Duration                                 : 1 h 39 min
  341. Bit rate                                 : 28.3 kb/s
  342. Count of elements                        : 2006
  343. Stream size                              : 20.1 MiB (0%)
  344. Title                                    : Portuguese-PGS
  345. Language                                 : Portuguese
  346. Default                                  : No
  347. Forced                                   : No

  348. Menu
  349. 00:00:00.000                             : en:Chapter 01
  350. 00:04:09.624                             : en:Chapter 02
  351. 00:07:27.196                             : en:Chapter 03
  352. 00:10:19.994                             : en:Chapter 04
  353. 00:15:16.498                             : en:Chapter 05
  354. 00:17:47.066                             : en:Chapter 06
  355. 00:20:23.972                             : en:Chapter 07
  356. 00:22:51.036                             : en:Chapter 08
  357. 00:26:27.877                             : en:Chapter 09
  358. 00:29:06.035                             : en:Chapter 10
  359. 00:33:16.411                             : en:Chapter 11
  360. 00:35:47.770                             : en:Chapter 12
  361. 00:39:01.797                             : en:Chapter 13
  362. 00:44:18.822                             : en:Chapter 14
  363. 00:47:21.296                             : en:Chapter 15
  364. 00:52:30.230                             : en:Chapter 16
  365. 00:56:28.301                             : en:Chapter 17
  366. 01:01:16.547                             : en:Chapter 18
  367. 01:04:50.678                             : en:Chapter 19
  368. 01:11:04.468                             : en:Chapter 20
  369. 01:12:34.099                             : en:Chapter 21
  370. 01:17:16.089                             : en:Chapter 22
  371. 01:21:05.360                             : en:Chapter 23
  372. 01:24:17.385                             : en:Chapter 24
  373. 01:29:19.604                             : en:Chapter 25
  374. 01:36:15.186                             : en:Chapter 26
  375. 01:37:58.914                             : en:Chapter 27
  376. 01:41:38.550                             : en:Chapter 28
复制代码

170019j3q1qkuq11mgzcld.png 007:大破量子危机/007大破量子危机 Quantum.of.Solace.2008.2160p.BluRay.x264.8bit.SDR.DTS-HD.MA.5.1-SWTYBLZ 28.78GB-3.png 007:大破量子危机/007大破量子危机 Quantum.of.Solace.2008.2160p.BluRay.x264.8bit.SDR.DTS-HD.MA.5.1-SWTYBLZ 28.78GB-4.png 007:大破量子危机/007大破量子危机 Quantum.of.Solace.2008.2160p.BluRay.x264.8bit.SDR.DTS-HD.MA.5.1-SWTYBLZ 28.78GB-5.png 007:大破量子危机/007大破量子危机 Quantum.of.Solace.2008.2160p.BluRay.x264.8bit.SDR.DTS-HD.MA.5.1-SWTYBLZ 28.78GB-6.png 170053rdwdeee0hihw7cdd.png 007:大破量子危机/007大破量子危机 Quantum.of.Solace.2008.2160p.BluRay.x264.8bit.SDR.DTS-HD.MA.5.1-SWTYBLZ 28.78GB-8.png







回复

使用道具 举报

发表于 2019-10-21 15:15:04 | 显示全部楼层
楼主发贴辛苦了,谢谢楼主分享!我觉得蓝光电影网是注册对了!
回复 支持 反对

使用道具 举报

发表于 2019-10-21 16:21:44 | 显示全部楼层

这东西我收了!谢谢楼主!蓝光电影网真好!
回复 支持 反对

使用道具 举报

发表于 2019-10-21 19:38:27 | 显示全部楼层
感谢楼主分享!!!~~~
回复 支持 反对

使用道具 举报

发表于 2019-10-21 20:57:23 来自手机 | 显示全部楼层
很好的资源。非常感谢您的分享!
回复 支持 反对

使用道具 举报

懒得打字嘛,点击右侧快捷回复 【右侧内容,后台自定义】
您需要登录后才可以回帖 登录 | 立即加入

本版积分规则

现在加入蓝光电影网,注册一个账号

QQ| 手机版|小黑屋| 蓝光电影网 |网站地图 

Copyright © 2015-2019 Comsenz Inc.  Template by 蓝光电影论坛 All Rights Reserved.

Powered by 蓝光电影网 X3.4

特别声明:本站所有资源均由网上收集而来,版权归原影音公司所有,如果侵犯了你的权益,请通知我们,我们会及时删除侵权内容.

快速回复 返回顶部 返回列表