找回密码

蓝光电影网

查看: 61|回复: 0

[剧情片] 金发女郎的爱情 Loves.of.a.Blonde.1965.720p.BluRay.x264-GHOULS 3.28GB

[复制链接]

 成长值: 1345

发表于 5 天前 | 显示全部楼层 |阅读模式
金发女郎的爱情 Loves.of.a.Blonde.1965.720p.BluRay.x264-GHOULS 3.28GB-1.png

译  名 金发女郎的爱情 / A Blonde in Love / Loves of a Blonde / 金发女郎之恋
片  名 Lásky jedné plavovlásky
年  代 1965
产  地 捷克斯洛伐克
类  别 剧情 / 喜剧 / 爱情
语  言 捷克语
上映日期 1965-11-12
IMDb评分  7.6/10 from 6630 users
IMDb链接  http://www.imdb.com/title/tt0059415
豆瓣评分 7.6/10 from 836 users
豆瓣链接 https://movie.douban.com/subject/1303082/
片  长 Argentina: 90 分钟
导  演 Milos Forman
编  剧 Milos Forman / Jaroslav Papousek
主  演 Hana Brejchová
       Vladimír Pucholt
       Vladimír Mensík
       Ivan Kheil
       Jirí Hruby


标  签 捷克 | 米洛斯·福尔曼 | 爱情 | 捷克电影 | MilosForman | 1960s | 1965 | CC

简  介  

  金发少女安杜拉(Hana Brejchová 饰)是一个在捷克某小镇制鞋厂工作的女孩,青春年少的她和同龄人一样渴望一段浪漫完美的爱情,但在这个男女比例严重失调的小镇上,她的愿望似乎有些渺茫。镇上的青年汤达(Antonín Blazejovsky 饰)展开爱情攻势,然而始终无法获得安杜拉的芳心。某天,偶然流浪于此的青年钢琴家米达(Vladimír Pucholt 饰)适时打开了安杜拉的心扉,她和这个来自布拉格乐团的文艺青年度过浪漫激情的一夜。从此以后,安杜拉对米达念念不忘,更决定启程前往布拉格寻找爱人。她要的是真挚的爱情,而米达却只当那是一夜的露水姻缘……
  本片荣获1967年丹麦波迪奖最佳欧洲影片奖、1967年芬兰胡西奖最佳外语片导演奖。

获奖情况  

  第39届奥斯卡金像奖(1967)
  最佳外语片(提名)

  第26届威尼斯电影节(1965)
  主竞赛单元 金狮奖 (提名) 米洛斯·福尔曼
  1. Video
  2. ID                                       : 1
  3. Format                                   : AVC
  4. Format/Info                              : Advanced Video Codec
  5. Format profile                           : <a href="/cdn-cgi/l/email-protection" class="__cf_email__" data-cfemail="3c74555b547c7008120d">[email protected]</a>
  6. Format settings                          : CABAC / 11 Ref Frames
  7. Format settings, CABAC                   : Yes
  8. Format settings, Reference frames        : 11 frames
  9. Codec ID                                 : V_MPEG4/ISO/AVC
  10. Duration                                 : 1 h 20 min
  11. Bit rate                                 : 5 152 kb/s
  12. Width                                    : 992 pixels
  13. Height                                   : 720 pixels
  14. Display aspect ratio                     : 1.378
  15. Frame rate mode                          : Constant
  16. Frame rate                               : 24.000 FPS
  17. Color space                              : YUV
  18. Chroma subsampling                       : 4:2:0
  19. Bit depth                                : 8 bits
  20. Scan type                                : Progressive
  21. Bits/(Pixel*Frame)                       : 0.301
  22. Stream size                              : 2.91 GiB (89%)
  23. Writing library                          : x264 core 158 r2984 3759fcb
  24. Encoding settings                        : cabac=1 / ref=11 / deblock=1:-3:-3 / analyse=0x3:0x133 / me=umh / subme=9 / psy=1 / psy_rd=1.00:0.00 / mixed_ref=1 / me_range=24 / chroma_me=1 / trellis=1 / 8x8dct=1 / cqm=0 / deadzone=21,11 / fast_pskip=0 / chroma_qp_offset=-2 / threads=22 / lookahead_threads=3 / sliced_threads=0 / nr=0 / decimate=1 / interlaced=0 / bluray_compat=0 / constrained_intra=0 / bframes=8 / b_pyramid=2 / b_adapt=2 / b_bias=0 / direct=3 / weightb=1 / open_gop=0 / weightp=2 / keyint=250 / keyint_min=24 / scenecut=40 / intra_refresh=0 / rc_lookahead=60 / rc=2pass / mbtree=1 / bitrate=5152 / ratetol=1.0 / qcomp=0.60 / qpmin=0 / qpmax=69 / qpstep=4 / cplxblur=20.0 / qblur=0.5 / vbv_maxrate=62500 / vbv_bufsize=78125 / nal_hrd=none / filler=0 / ip_ratio=1.40 / aq=1:1.00
  25. Default                                  : Yes
  26. Forced                                   : No

  27. Audio
  28. ID                                       : 2
  29. Format                                   : FLAC
  30. Format/Info                              : Free Lossless Audio Codec
  31. Codec ID                                 : A_FLAC
  32. Duration                                 : 1 h 20 min
  33. Bit rate mode                            : Variable
  34. Bit rate                                 : 648 kb/s
  35. Channel(s)                               : 2 channels
  36. Channel layout                           : L R
  37. Sampling rate                            : 48.0 kHz
  38. Frame rate                               : 10.417 FPS (4608 SPF)
  39. Bit depth                                : 24 bits
  40. Compression mode                         : Lossless
  41. Stream size                              : 374 MiB (11%)
  42. Writing library                          : Lavf58.20.100
  43. Language                                 : Czech
  44. Default                                  : Yes
  45. Forced                                   : No

  46. Text
  47. ID                                       : 3
  48. Format                                   : UTF-8
  49. Codec ID                                 : S_TEXT/UTF8
  50. Codec ID/Info                            : UTF-8 Plain Text
  51. Duration                                 : 1 h 20 min
  52. Bit rate                                 : 40 b/s
  53. Count of elements                        : 695
  54. Stream size                              : 23.8 KiB (0%)
  55. Language                                 : English
  56. Default                                  : Yes
  57. Forced                                   : No

  58. Menu
  59. 00:00:00.000                             : en:Chapter 01
  60. 00:05:39.667                             : en:Chapter 02
  61. 00:09:51.042                             : en:Chapter 03
  62. 00:19:56.333                             : en:Chapter 04
  63. 00:31:47.625                             : en:Chapter 05
  64. 00:39:21.875                             : en:Chapter 06
  65. 00:44:51.375                             : en:Chapter 07
  66. 00:52:14.417                             : en:Chapter 08
  67. 00:58:46.042                             : en:Chapter 09
  68. 01:04:53.542                             : en:Chapter 10
  69. 01:07:48.250                             : en:Chapter 11
  70. 01:14:15.458                             : en:Chapter 12
复制代码

金发女郎的爱情 Loves.of.a.Blonde.1965.720p.BluRay.x264-GHOULS 3.28GB-2.png






开通VIP免费下载本站所有资源---点这里
新手必看:资源下载、资源播放、字幕使用、等常见问题---点这里
回复

使用道具 举报

懒得打字嘛,点击右侧快捷回复 【右侧内容,后台自定义】
您需要登录后才可以回帖 登录 | 立即加入

本版积分规则

现在加入蓝光电影网,注册一个账号

QQ| 手机版|小黑屋| 蓝光电影网 |网站地图

Copyright © 2015-2019 Comsenz Inc.  Template by 蓝光电影网 All Rights Reserved.

Powered by 蓝光电影网 X3.4

特别声明:本站所有资源均由网上收集而来,版权归原影音公司所有,如果侵犯了你的权益,请通知我们,我们会及时删除侵权内容.

快速回复 返回顶部 返回列表