找回密码

蓝光电影网

查看: 234|回复: 2

[10bit.SDR] 伴我同行/与我常在 Stand.by.Me.1986.2160p.BluRay.x265.10bit.SDR.DTS-HD.MA.TrueHD.7.1.Atmos-SWTYBLZ 41.86GB

[复制链接]

 成长值: 1345

发表于 2019-9-1 13:21:10 | 显示全部楼层 |阅读模式
伴我同行/与我常在 Stand.by.Me.1986.2160p.BluRay.x265.10bit.SDR.DTS-HD.MA.TrueHD.7.1.Atmos-SWTYBLZ 41.86GB-1.png

译  名 伴我同行 / 与我常在 / 同仇敌忾 / 站在我这边
片  名 Stand by Me
年  代 1986
产  地 美国
类  别 剧情 / 儿童 / 冒险
语  言 英语
上映日期 1986-08-08(美国)
IMDb评分  8.1/10 from 337546 users
IMDb链接  http://www.imdb.com/title/tt0092005
豆瓣评分 8.9/10 from 70904 users
豆瓣链接 https://movie.douban.com/subject/1292925/
片  长 89分钟
导  演 罗伯·莱纳 Rob Reiner
编  剧 雷纳尔多·吉迪恩 Raynold Gideon / 布鲁斯·A·埃文斯 Bruce A. Evans / 斯蒂芬·金 Stephen King
主  演 瑞凡·菲尼克斯 River Phoenix
       威尔·惠顿 Wil Wheaton
       科里·费尔德曼 Corey Feldman
       杰瑞·奥康奈尔 Jerry O'Connell
       约翰·库萨克 John Cusack
       理查德·德莱弗斯 Richard Dreyfuss
       基弗·萨瑟兰 Kiefer Sutherland


标  签 成长 | 美国 | 青春 | 童年 | 友情 | 1986 | 剧情 | 经典

简  介  

  这是一部关于成长的电影。著名作家戈迪(理查德?德莱福斯 Richard Dreyfuss 饰)回忆起他12岁时的一次冒险活动:当时,年少的戈迪(威尔?惠顿 Wil Wheaton 饰)与他的三个小伙伴克里斯(瑞凡?菲尼克斯 River Phoenix 饰)、泰迪(科里?费尔德曼 Corey Feldman 饰)和维恩为了当一回“英雄”去河的对岸的森林里寻找一具12岁男孩的尸体。
  4个少年家庭各有问题,他们都有自己的心事。在旅程中每个人的性格都被体现得淋漓尽致:四个男孩性格中的软弱和坚强,在闪火车,翻铁门,越森林等一系列的行动中被最大限度的放大;每个人都有自己可望而不可及的梦想……
  1987年金球奖最佳电影、最佳导演提名,1987年奥斯卡奖最佳编剧提名

获奖情况  

  第59届奥斯卡金像奖(1987)
  最佳改编剧本(提名) 布鲁斯·A·埃文斯 / 雷纳尔多·吉迪恩
  1. Video
  2. ID                                       : 1
  3. Format                                   : HEVC
  4. Format/Info                              : High Efficiency Video Coding
  5. Format profile                           : Main <a href="/cdn-cgi/l/email-protection" class="__cf_email__" data-cfemail="536263131f667d62">[email protected]</a>@High
  6. Codec ID                                 : V_MPEGH/ISO/HEVC
  7. Duration                                 : 1 h 28 min
  8. Bit rate                                 : 59.1 Mb/s
  9. Width                                    : 3 840 pixels
  10. Height                                   : 2 076 pixels
  11. Display aspect ratio                     : 1.85:1
  12. Frame rate mode                          : Constant
  13. Frame rate                               : 23.976 (24000/1001) FPS
  14. Color space                              : YUV
  15. Chroma subsampling                       : 4:2:0
  16. Bit depth                                : 10 bits
  17. Bits/(Pixel*Frame)                       : 0.309
  18. Stream size                              : 36.5 GiB (88%)
  19. Title                                    : Stand.by.Me.1986.2160p.BluRay.x265.10bit.SDR.DTS-HD.MA.TrueHD.7.1.Atmos-SWTYBLZ
  20. Writing library                          : x265 3.0ed72af837053:[Windows][GCC 8.2.0][64 bit] 10bit
  21. Encoding settings                        : cpuid=1111039 / frame-threads=16 / numa-pools=44,44 / wpp / no-pmode / no-pme / no-psnr / no-ssim / log-level=2 / input-csp=1 / input-res=3840x2076 / interlace=0 / total-frames=127416 / level-idc=51 / high-tier=1 / uhd-bd=0 / ref=3 / no-allow-non-conformance / repeat-headers / annexb / aud / hrd / info / hash=0 / no-temporal-layers / no-open-gop / min-keyint=1 / keyint=24 / gop-lookahead=0 / bframes=4 / b-adapt=2 / b-pyramid / bframe-bias=0 / rc-lookahead=25 / lookahead-slices=4 / scenecut=40 / radl=0 / no-splice / no-intra-refresh / ctu=64 / min-cu-size=8 / no-rect / no-amp / max-tu-size=32 / tu-inter-depth=1 / tu-intra-depth=1 / limit-tu=0 / rdoq-level=0 / dynamic-rd=0.00 / no-ssim-rd / signhide / no-tskip / nr-intra=0 / nr-inter=0 / no-constrained-intra / strong-intra-smoothing / max-merge=2 / limit-refs=3 / no-limit-modes / me=1 / subme=2 / merange=57 / temporal-mvp / weightp / no-weightb / no-analyze-src-pics / deblock=0:0 / no-sao / no-sao-non-deblock / rd=3 / no-early-skip / rskip / no-fast-intra / no-tskip-fast / no-cu-lossless / no-b-intra / no-splitrd-skip / rdpenalty=0 / psy-rd=2.00 / psy-rdoq=0.00 / no-rd-refine / no-lossless / cbqpoffs=0 / crqpoffs=0 / rc=crf / crf=19.0 / qcomp=0.60 / qpstep=4 / stats-write=0 / stats-read=0 / vbv-maxrate=160000 / vbv-bufsize=160000 / vbv-init=0.9 / crf-max=0.0 / crf-min=0.0 / ipratio=1.40 / pbratio=1.30 / aq-mode=1 / aq-strength=1.00 / cutree / zone-count=0 / no-strict-cbr / qg-size=32 / no-rc-grain / qpmax=69 / qpmin=0 / no-const-vbv / sar=1 / overscan=0 / videoformat=5 / range=0 / colorprim=2 / transfer=2 / colormatrix=2 / chromaloc=0 / display-window=0 / max-cll=0,0 / min-luma=0 / max-luma=1023 / log2-max-poc-lsb=8 / vui-timing-info / vui-hrd-info / slices=1 / opt-qp-pps / opt-ref-list-length-pps / no-multi-pass-opt-rps / scenecut-bias=0.05 / no-opt-cu-delta-qp / no-aq-motion / no-hdr / no-hdr-opt / no-dhdr10-opt / no-idr-recovery-sei / analysis-reuse-level=5 / scale-factor=0 / refine-intra=0 / refine-inter=0 / refine-mv=0 / refine-ctu-distortion=0 / no-limit-sao / ctu-info=0 / no-lowpass-dct / refine-analysis-type=0 / copy-pic=1 / max-ausize-factor=1.0 / no-dynamic-refine / no-single-sei / no-hevc-aq / qp-adaptation-range=1.00
  22. Default                                  : Yes
  23. Forced                                   : No

  24. Audio #1
  25. ID                                       : 2
  26. Format                                   : MLP FBA 16-ch
  27. Format/Info                              : Meridian Lossless Packing FBA with 16-channel presentation
  28. Commercial name                          : Dolby TrueHD with Dolby Atmos
  29. Codec ID                                 : A_TRUEHD
  30. Duration                                 : 1 h 28 min
  31. Bit rate mode                            : Variable
  32. Bit rate                                 : 3 121 kb/s
  33. Maximum bit rate                         : 4 866 kb/s
  34. Channel(s)                               : 8 channels
  35. Channel layout                           : L R C LFE Ls Rs Lb Rb
  36. Sampling rate                            : 48.0 kHz
  37. Frame rate                               : 1 200.000 FPS (40 SPF)
  38. Compression mode                         : Lossless
  39. Stream size                              : 1.93 GiB (5%)
  40. Title                                    : Stand.by.Me.1986.2160p.BluRay.x265.10bit.SDR.DTS-HD.MA.TrueHD.7.1.Atmos-SWTYBLZ
  41. Language                                 : English
  42. Default                                  : Yes
  43. Forced                                   : No
  44. Number of dynamic objects                : 11
  45. Bed channel count                        : 1 channel
  46. Bed channel configuration                : LFE

  47. Audio #2
  48. ID                                       : 3
  49. Format                                   : DTS XLL
  50. Format/Info                              : Digital Theater Systems
  51. Commercial name                          : DTS-HD Master Audio
  52. Codec ID                                 : A_DTS
  53. Duration                                 : 1 h 28 min
  54. Bit rate mode                            : Variable
  55. Bit rate                                 : 4 075 kb/s
  56. Channel(s)                               : 8 channels
  57. Channel layout                           : C L R LFE Lb Rb Lss Rss
  58. Sampling rate                            : 48.0 kHz
  59. Frame rate                               : 93.750 FPS (512 SPF)
  60. Bit depth                                : 24 bits
  61. Compression mode                         : Lossless
  62. Stream size                              : 2.52 GiB (6%)
  63. Title                                    : Stand.by.Me.1986.2160p.BluRay.x265.10bit.SDR.DTS-HD.MA.TrueHD.7.1.Atmos-SWTYBLZ
  64. Language                                 : English
  65. Default                                  : No
  66. Forced                                   : No

  67. Audio #3
  68. ID                                       : 4
  69. Format                                   : AC-3
  70. Format/Info                              : Audio Coding 3
  71. Commercial name                          : Dolby Digital
  72. Codec ID                                 : A_AC3
  73. Duration                                 : 1 h 28 min
  74. Bit rate mode                            : Constant
  75. Bit rate                                 : 640 kb/s
  76. Channel(s)                               : 6 channels
  77. Channel layout                           : L R C LFE Ls Rs
  78. Sampling rate                            : 48.0 kHz
  79. Frame rate                               : 31.250 FPS (1536 SPF)
  80. Bit depth                                : 16 bits
  81. Compression mode                         : Lossy
  82. Stream size                              : 405 MiB (1%)
  83. Title                                    : Stand.by.Me.1986.2160p.BluRay.x264.8bit.SDR.DTS-HD.MA.TrueHD.7.1.Atmos-SWTYBLZ
  84. Language                                 : English
  85. Service kind                             : Complete Main
  86. Default                                  : No
  87. Forced                                   : No

  88. Text #1
  89. ID                                       : 5
  90. Format                                   : UTF-8
  91. Codec ID                                 : S_TEXT/UTF8
  92. Codec ID/Info                            : UTF-8 Plain Text
  93. Duration                                 : 1 h 26 min
  94. Bit rate                                 : 72 b/s
  95. Count of elements                        : 1326
  96. Stream size                              : 46.4 KiB (0%)
  97. Title                                    : English-SRT
  98. Language                                 : English
  99. Default                                  : Yes
  100. Forced                                   : No

  101. Text #2
  102. ID                                       : 6
  103. Format                                   : PGS
  104. Muxing mode                              : zlib
  105. Codec ID                                 : S_HDMV/PGS
  106. Codec ID/Info                            : Picture based subtitle format used on BDs/HD-DVDs
  107. Duration                                 : 1 h 21 min
  108. Bit rate                                 : 46.1 kb/s
  109. Count of elements                        : 2445
  110. Stream size                              : 27.0 MiB (0%)
  111. Title                                    : English-PGS
  112. Language                                 : English
  113. Default                                  : No
  114. Forced                                   : No

  115. Text #3
  116. ID                                       : 7
  117. Format                                   : PGS
  118. Muxing mode                              : zlib
  119. Codec ID                                 : S_HDMV/PGS
  120. Codec ID/Info                            : Picture based subtitle format used on BDs/HD-DVDs
  121. Duration                                 : 1 h 27 min
  122. Bit rate                                 : 50.6 kb/s
  123. Count of elements                        : 2889
  124. Stream size                              : 31.7 MiB (0%)
  125. Title                                    : English-SDH-PGS
  126. Language                                 : English
  127. Default                                  : No
  128. Forced                                   : No

  129. Text #4
  130. ID                                       : 8
  131. Format                                   : PGS
  132. Muxing mode                              : zlib
  133. Codec ID                                 : S_HDMV/PGS
  134. Codec ID/Info                            : Picture based subtitle format used on BDs/HD-DVDs
  135. Duration                                 : 1 h 21 min
  136. Bit rate                                 : 46.1 kb/s
  137. Count of elements                        : 2445
  138. Stream size                              : 27.0 MiB (0%)
  139. Title                                    : English-PGS
  140. Language                                 : English
  141. Default                                  : No
  142. Forced                                   : No

  143. Text #5
  144. ID                                       : 9
  145. Format                                   : PGS
  146. Muxing mode                              : zlib
  147. Codec ID                                 : S_HDMV/PGS
  148. Codec ID/Info                            : Picture based subtitle format used on BDs/HD-DVDs
  149. Duration                                 : 1 h 27 min
  150. Bit rate                                 : 50.6 kb/s
  151. Count of elements                        : 2889
  152. Stream size                              : 31.7 MiB (0%)
  153. Title                                    : English-SDH-PGS
  154. Language                                 : English
  155. Default                                  : No
  156. Forced                                   : No

  157. Text #6
  158. ID                                       : 10
  159. Format                                   : PGS
  160. Muxing mode                              : zlib
  161. Codec ID                                 : S_HDMV/PGS
  162. Codec ID/Info                            : Picture based subtitle format used on BDs/HD-DVDs
  163. Duration                                 : 1 h 22 min
  164. Bit rate                                 : 22.0 kb/s
  165. Count of elements                        : 2190
  166. Stream size                              : 13.0 MiB (0%)
  167. Title                                    : Arabic-PGS
  168. Language                                 : Arabic
  169. Default                                  : No
  170. Forced                                   : No

  171. Text #7
  172. ID                                       : 11
  173. Format                                   : PGS
  174. Muxing mode                              : zlib
  175. Codec ID                                 : S_HDMV/PGS
  176. Codec ID/Info                            : Picture based subtitle format used on BDs/HD-DVDs
  177. Duration                                 : 1 h 22 min
  178. Bit rate                                 : 34.3 kb/s
  179. Count of elements                        : 2306
  180. Stream size                              : 20.3 MiB (0%)
  181. Title                                    : Chinese-PGS
  182. Language                                 : Chinese
  183. Default                                  : No
  184. Forced                                   : No

  185. Text #8
  186. ID                                       : 12
  187. Format                                   : PGS
  188. Muxing mode                              : zlib
  189. Codec ID                                 : S_HDMV/PGS
  190. Codec ID/Info                            : Picture based subtitle format used on BDs/HD-DVDs
  191. Duration                                 : 1 h 22 min
  192. Bit rate                                 : 35.8 kb/s
  193. Count of elements                        : 2304
  194. Stream size                              : 21.2 MiB (0%)
  195. Title                                    : Croatian-PGS
  196. Language                                 : Croatian
  197. Default                                  : No
  198. Forced                                   : No

  199. Text #9
  200. ID                                       : 13
  201. Format                                   : PGS
  202. Muxing mode                              : zlib
  203. Codec ID                                 : S_HDMV/PGS
  204. Codec ID/Info                            : Picture based subtitle format used on BDs/HD-DVDs
  205. Duration                                 : 1 h 22 min
  206. Bit rate                                 : 35.3 kb/s
  207. Count of elements                        : 2182
  208. Stream size                              : 20.9 MiB (0%)
  209. Title                                    : Czech-PGS
  210. Language                                 : Czech
  211. Default                                  : No
  212. Forced                                   : No

  213. Text #10
  214. ID                                       : 14
  215. Format                                   : PGS
  216. Muxing mode                              : zlib
  217. Codec ID                                 : S_HDMV/PGS
  218. Codec ID/Info                            : Picture based subtitle format used on BDs/HD-DVDs
  219. Duration                                 : 1 h 22 min
  220. Bit rate                                 : 38.7 kb/s
  221. Count of elements                        : 2154
  222. Stream size                              : 23.0 MiB (0%)
  223. Title                                    : Danish-PGS
  224. Language                                 : Danish
  225. Default                                  : No
  226. Forced                                   : No

  227. Text #11
  228. ID                                       : 15
  229. Format                                   : PGS
  230. Muxing mode                              : zlib
  231. Codec ID                                 : S_HDMV/PGS
  232. Codec ID/Info                            : Picture based subtitle format used on BDs/HD-DVDs
  233. Duration                                 : 1 h 22 min
  234. Bit rate                                 : 39.4 kb/s
  235. Count of elements                        : 2154
  236. Stream size                              : 23.4 MiB (0%)
  237. Title                                    : Dutch-PGS
  238. Language                                 : Dutch
  239. Default                                  : No
  240. Forced                                   : No

  241. Text #12
  242. ID                                       : 16
  243. Format                                   : PGS
  244. Muxing mode                              : zlib
  245. Codec ID                                 : S_HDMV/PGS
  246. Codec ID/Info                            : Picture based subtitle format used on BDs/HD-DVDs
  247. Duration                                 : 1 h 22 min
  248. Bit rate                                 : 34.2 kb/s
  249. Count of elements                        : 2124
  250. Stream size                              : 20.3 MiB (0%)
  251. Title                                    : Finnish-PGS
  252. Language                                 : Finnish
  253. Default                                  : No
  254. Forced                                   : No

  255. Text #13
  256. ID                                       : 17
  257. Format                                   : PGS
  258. Muxing mode                              : zlib
  259. Codec ID                                 : S_HDMV/PGS
  260. Codec ID/Info                            : Picture based subtitle format used on BDs/HD-DVDs
  261. Duration                                 : 1 h 27 min
  262. Bit rate                                 : 38.6 kb/s
  263. Count of elements                        : 2186
  264. Stream size                              : 24.1 MiB (0%)
  265. Title                                    : French-PGS
  266. Language                                 : French
  267. Default                                  : No
  268. Forced                                   : No

  269. Text #14
  270. ID                                       : 18
  271. Format                                   : PGS
  272. Muxing mode                              : zlib
  273. Codec ID                                 : S_HDMV/PGS
  274. Codec ID/Info                            : Picture based subtitle format used on BDs/HD-DVDs
  275. Duration                                 : 1 h 22 min
  276. Bit rate                                 : 47.7 kb/s
  277. Count of elements                        : 2188
  278. Stream size                              : 28.1 MiB (0%)
  279. Title                                    : German-PGS
  280. Language                                 : German
  281. Default                                  : No
  282. Forced                                   : No

  283. Text #15
  284. ID                                       : 19
  285. Format                                   : PGS
  286. Muxing mode                              : zlib
  287. Codec ID                                 : S_HDMV/PGS
  288. Codec ID/Info                            : Picture based subtitle format used on BDs/HD-DVDs
  289. Duration                                 : 1 h 27 min
  290. Bit rate                                 : 38.6 kb/s
  291. Count of elements                        : 2204
  292. Stream size                              : 24.1 MiB (0%)
  293. Title                                    : Greek-PGS
  294. Language                                 : Greek
  295. Default                                  : No
  296. Forced                                   : No

  297. Text #16
  298. ID                                       : 20
  299. Format                                   : PGS
  300. Muxing mode                              : zlib
  301. Codec ID                                 : S_HDMV/PGS
  302. Codec ID/Info                            : Picture based subtitle format used on BDs/HD-DVDs
  303. Duration                                 : 1 h 22 min
  304. Bit rate                                 : 27.6 kb/s
  305. Count of elements                        : 2196
  306. Stream size                              : 16.4 MiB (0%)
  307. Title                                    : Hebrew-PGS
  308. Language                                 : Hebrew
  309. Default                                  : No
  310. Forced                                   : No

  311. Text #17
  312. ID                                       : 21
  313. Format                                   : PGS
  314. Muxing mode                              : zlib
  315. Codec ID                                 : S_HDMV/PGS
  316. Codec ID/Info                            : Picture based subtitle format used on BDs/HD-DVDs
  317. Duration                                 : 1 h 22 min
  318. Bit rate                                 : 28.8 kb/s
  319. Count of elements                        : 2194
  320. Stream size                              : 17.1 MiB (0%)
  321. Title                                    : Hindi-PGS
  322. Language                                 : Hindi
  323. Default                                  : No
  324. Forced                                   : No

  325. Text #18
  326. ID                                       : 22
  327. Format                                   : PGS
  328. Muxing mode                              : zlib
  329. Codec ID                                 : S_HDMV/PGS
  330. Codec ID/Info                            : Picture based subtitle format used on BDs/HD-DVDs
  331. Duration                                 : 1 h 22 min
  332. Bit rate                                 : 38.9 kb/s
  333. Count of elements                        : 2160
  334. Stream size                              : 23.1 MiB (0%)
  335. Title                                    : Hungarian-PGS
  336. Language                                 : Hungarian
  337. Default                                  : No
  338. Forced                                   : No

  339. Text #19
  340. ID                                       : 23
  341. Format                                   : PGS
  342. Muxing mode                              : zlib
  343. Codec ID                                 : S_HDMV/PGS
  344. Codec ID/Info                            : Picture based subtitle format used on BDs/HD-DVDs
  345. Duration                                 : 1 h 22 min
  346. Bit rate                                 : 45.1 kb/s
  347. Count of elements                        : 2302
  348. Stream size                              : 26.7 MiB (0%)
  349. Title                                    : Indonesian-PGS
  350. Language                                 : Indonesian
  351. Default                                  : No
  352. Forced                                   : No

  353. Text #20
  354. ID                                       : 24
  355. Format                                   : PGS
  356. Muxing mode                              : zlib
  357. Codec ID                                 : S_HDMV/PGS
  358. Codec ID/Info                            : Picture based subtitle format used on BDs/HD-DVDs
  359. Duration                                 : 1 h 22 min
  360. Bit rate                                 : 37.9 kb/s
  361. Count of elements                        : 2131
  362. Stream size                              : 22.5 MiB (0%)
  363. Title                                    : Italian-PGS
  364. Language                                 : Italian
  365. Default                                  : No
  366. Forced                                   : No

  367. Text #21
  368. ID                                       : 25
  369. Format                                   : PGS
  370. Muxing mode                              : zlib
  371. Codec ID                                 : S_HDMV/PGS
  372. Codec ID/Info                            : Picture based subtitle format used on BDs/HD-DVDs
  373. Duration                                 : 1 h 24 min
  374. Bit rate                                 : 25.1 kb/s
  375. Count of elements                        : 2059
  376. Stream size                              : 15.2 MiB (0%)
  377. Title                                    : Japanese-PGS
  378. Language                                 : Japanese
  379. Default                                  : No
  380. Forced                                   : No

  381. Text #22
  382. ID                                       : 26
  383. Format                                   : PGS
  384. Muxing mode                              : zlib
  385. Codec ID                                 : S_HDMV/PGS
  386. Codec ID/Info                            : Picture based subtitle format used on BDs/HD-DVDs
  387. Duration                                 : 1 h 23 min
  388. Bit rate                                 : 26.5 kb/s
  389. Count of elements                        : 2308
  390. Stream size                              : 15.8 MiB (0%)
  391. Title                                    : Korean-PGS
  392. Language                                 : Korean
  393. Default                                  : No
  394. Forced                                   : No

  395. Text #23
  396. ID                                       : 27
  397. Format                                   : PGS
  398. Muxing mode                              : zlib
  399. Codec ID                                 : S_HDMV/PGS
  400. Codec ID/Info                            : Picture based subtitle format used on BDs/HD-DVDs
  401. Duration                                 : 1 h 22 min
  402. Bit rate                                 : 37.9 kb/s
  403. Count of elements                        : 2182
  404. Stream size                              : 22.5 MiB (0%)
  405. Title                                    : Norwegian-PGS
  406. Language                                 : Norwegian
  407. Default                                  : No
  408. Forced                                   : No

  409. Text #24
  410. ID                                       : 28
  411. Format                                   : PGS
  412. Muxing mode                              : zlib
  413. Codec ID                                 : S_HDMV/PGS
  414. Codec ID/Info                            : Picture based subtitle format used on BDs/HD-DVDs
  415. Duration                                 : 1 h 27 min
  416. Bit rate                                 : 36.6 kb/s
  417. Count of elements                        : 2190
  418. Stream size                              : 22.9 MiB (0%)
  419. Title                                    : Polish-PGS
  420. Language                                 : Polish
  421. Default                                  : No
  422. Forced                                   : No

  423. Text #25
  424. ID                                       : 29
  425. Format                                   : PGS
  426. Muxing mode                              : zlib
  427. Codec ID                                 : S_HDMV/PGS
  428. Codec ID/Info                            : Picture based subtitle format used on BDs/HD-DVDs
  429. Duration                                 : 1 h 23 min
  430. Bit rate                                 : 42.2 kb/s
  431. Count of elements                        : 2304
  432. Stream size                              : 25.2 MiB (0%)
  433. Title                                    : Portuguese-PGS
  434. Language                                 : Portuguese
  435. Default                                  : No
  436. Forced                                   : No

  437. Text #26
  438. ID                                       : 30
  439. Format                                   : PGS
  440. Muxing mode                              : zlib
  441. Codec ID                                 : S_HDMV/PGS
  442. Codec ID/Info                            : Picture based subtitle format used on BDs/HD-DVDs
  443. Duration                                 : 1 h 27 min
  444. Bit rate                                 : 36.9 kb/s
  445. Count of elements                        : 2162
  446. Stream size                              : 23.2 MiB (0%)
  447. Title                                    : Portuguese-PGS
  448. Language                                 : Portuguese
  449. Default                                  : No
  450. Forced                                   : No

  451. Text #27
  452. ID                                       : 31
  453. Format                                   : PGS
  454. Muxing mode                              : zlib
  455. Codec ID                                 : S_HDMV/PGS
  456. Codec ID/Info                            : Picture based subtitle format used on BDs/HD-DVDs
  457. Duration                                 : 1 h 22 min
  458. Bit rate                                 : 37.8 kb/s
  459. Count of elements                        : 2302
  460. Stream size                              : 22.4 MiB (0%)
  461. Title                                    : Slovak-PGS
  462. Language                                 : Slovak
  463. Default                                  : No
  464. Forced                                   : No

  465. Text #28
  466. ID                                       : 32
  467. Format                                   : PGS
  468. Muxing mode                              : zlib
  469. Codec ID                                 : S_HDMV/PGS
  470. Codec ID/Info                            : Picture based subtitle format used on BDs/HD-DVDs
  471. Duration                                 : 1 h 22 min
  472. Bit rate                                 : 38.4 kb/s
  473. Count of elements                        : 2190
  474. Stream size                              : 22.8 MiB (0%)
  475. Title                                    : Spanish-PGS
  476. Language                                 : Spanish
  477. Default                                  : No
  478. Forced                                   : No

  479. Text #29
  480. ID                                       : 33
  481. Format                                   : PGS
  482. Muxing mode                              : zlib
  483. Codec ID                                 : S_HDMV/PGS
  484. Codec ID/Info                            : Picture based subtitle format used on BDs/HD-DVDs
  485. Duration                                 : 4 s 46 ms
  486. Bit rate                                 : 114 kb/s
  487. Count of elements                        : 4
  488. Stream size                              : 56.3 KiB (0%)
  489. Title                                    : Spanish-PGS
  490. Language                                 : Spanish
  491. Default                                  : No
  492. Forced                                   : No

  493. Text #30
  494. ID                                       : 34
  495. Format                                   : PGS
  496. Muxing mode                              : zlib
  497. Codec ID                                 : S_HDMV/PGS
  498. Codec ID/Info                            : Picture based subtitle format used on BDs/HD-DVDs
  499. Duration                                 : 1 h 23 min
  500. Bit rate                                 : 43.1 kb/s
  501. Count of elements                        : 2304
  502. Stream size                              : 25.7 MiB (0%)
  503. Title                                    : Spanish-PGS
  504. Language                                 : Spanish
  505. Default                                  : No
  506. Forced                                   : No

  507. Text #31
  508. ID                                       : 35
  509. Format                                   : PGS
  510. Muxing mode                              : zlib
  511. Codec ID                                 : S_HDMV/PGS
  512. Codec ID/Info                            : Picture based subtitle format used on BDs/HD-DVDs
  513. Duration                                 : 1 h 27 min
  514. Bit rate                                 : 30.4 kb/s
  515. Count of elements                        : 2112
  516. Stream size                              : 19.0 MiB (0%)
  517. Title                                    : Swedish-PGS
  518. Language                                 : Swedish
  519. Default                                  : No
  520. Forced                                   : No

  521. Text #32
  522. ID                                       : 36
  523. Format                                   : PGS
  524. Muxing mode                              : zlib
  525. Codec ID                                 : S_HDMV/PGS
  526. Codec ID/Info                            : Picture based subtitle format used on BDs/HD-DVDs
  527. Duration                                 : 1 h 22 min
  528. Bit rate                                 : 36.3 kb/s
  529. Count of elements                        : 2306
  530. Stream size                              : 21.5 MiB (0%)
  531. Title                                    : Thai-PGS
  532. Language                                 : Thai
  533. Default                                  : No
  534. Forced                                   : No

  535. Text #33
  536. ID                                       : 37
  537. Format                                   : PGS
  538. Muxing mode                              : zlib
  539. Codec ID                                 : S_HDMV/PGS
  540. Codec ID/Info                            : Picture based subtitle format used on BDs/HD-DVDs
  541. Duration                                 : 1 h 22 min
  542. Bit rate                                 : 42.6 kb/s
  543. Count of elements                        : 2204
  544. Stream size                              : 25.3 MiB (0%)
  545. Title                                    : Turkish-PGS
  546. Language                                 : Turkish
  547. Default                                  : No
  548. Forced                                   : No

  549. Menu
  550. 00:00:00.000                             : en:Chapter 01
  551. 00:06:29.889                             : en:Chapter 02
  552. 00:14:10.349                             : en:Chapter 03
  553. 00:16:57.016                             : en:Chapter 04
  554. 00:24:40.645                             : en:Chapter 05
  555. 00:31:52.911                             : en:Chapter 06
  556. 00:36:31.522                             : en:Chapter 07
  557. 00:42:05.314                             : en:Chapter 08
  558. 00:52:43.451                             : en:Chapter 09
  559. 00:59:29.941                             : en:Chapter 10
  560. 01:03:13.456                             : en:Chapter 11
  561. 01:07:35.676                             : en:Chapter 12
  562. 01:09:55.816                             : en:Chapter 13
  563. 01:14:19.496                             : en:Chapter 14
  564. 01:19:13.999                             : en:Chapter 15
  565. 01:22:19.684                             : en:Chapter 16
复制代码

伴我同行/与我常在 Stand.by.Me.1986.2160p.BluRay.x265.10bit.SDR.DTS-HD.MA.TrueHD.7.1.Atmos-SWTYBLZ 41.86GB-2.png 伴我同行/与我常在 Stand.by.Me.1986.2160p.BluRay.x265.10bit.SDR.DTS-HD.MA.TrueHD.7.1.Atmos-SWTYBLZ 41.86GB-3.png 伴我同行/与我常在 Stand.by.Me.1986.2160p.BluRay.x265.10bit.SDR.DTS-HD.MA.TrueHD.7.1.Atmos-SWTYBLZ 41.86GB-4.png 伴我同行/与我常在 Stand.by.Me.1986.2160p.BluRay.x265.10bit.SDR.DTS-HD.MA.TrueHD.7.1.Atmos-SWTYBLZ 41.86GB-5.png 伴我同行/与我常在 Stand.by.Me.1986.2160p.BluRay.x265.10bit.SDR.DTS-HD.MA.TrueHD.7.1.Atmos-SWTYBLZ 41.86GB-6.png 伴我同行/与我常在 Stand.by.Me.1986.2160p.BluRay.x265.10bit.SDR.DTS-HD.MA.TrueHD.7.1.Atmos-SWTYBLZ 41.86GB-7.png 伴我同行/与我常在 Stand.by.Me.1986.2160p.BluRay.x265.10bit.SDR.DTS-HD.MA.TrueHD.7.1.Atmos-SWTYBLZ 41.86GB-8.png






开通VIP免费下载本站所有资源---点这里
新手必看:资源下载、资源播放、字幕使用、等常见问题---点这里
回复

使用道具 举报

发表于 2019-9-3 07:10:44 | 显示全部楼层

这个帖子不回对不起自己!我想我是一天也不能离开蓝光电影网
开通VIP免费下载本站所有资源---点这里
新手必看:资源下载、资源播放、字幕使用、等常见问题---点这里
回复 支持 反对

使用道具 举报

发表于 2019-9-3 21:04:55 | 显示全部楼层

楼主太厉害了!楼主,电影应该很好看我觉得蓝光电影网真是个好地方!
开通VIP免费下载本站所有资源---点这里
新手必看:资源下载、资源播放、字幕使用、等常见问题---点这里
回复 支持 反对

使用道具 举报

懒得打字嘛,点击右侧快捷回复 【右侧内容,后台自定义】
您需要登录后才可以回帖 登录 | 立即加入

本版积分规则

现在加入蓝光电影网,注册一个账号

QQ| 手机版|小黑屋| 蓝光电影网 |网站地图

Copyright © 2015-2019 Comsenz Inc.  Template by 蓝光电影网 All Rights Reserved.

Powered by 蓝光电影网 X3.4

特别声明:本站所有资源均由网上收集而来,版权归原影音公司所有,如果侵犯了你的权益,请通知我们,我们会及时删除侵权内容.

快速回复 返回顶部 返回列表