找回密码

蓝光电影网

查看: 18712|回复: 675

[科幻] 惊奇队长 Captain.Marvel.2019.1080p.BluRay.x264.DTS-HD.MA.7.1-FGT 11.58GB

  [复制链接]

 成长值: 22270

发表于 2019-5-30 11:57:00 | 显示全部楼层 |阅读模式
惊奇队长 Captain.Marvel.2019.1080p.BluRay.x264.DTS-HD.MA.7.1-FGT 11.58GB-1.png

译  名 惊奇队长 / Marvel队长(港) / 惊奇密斯 / 漫威队长
片  名 Captain Marvel
年  代 2019
产  地 美国
类  别 行动 / 科幻 / 冒险
语  言 英语
上映日期 2019-03-08(美国/中国大陆)
IMDb评分7.1/10 from 268698 users
IMDb链接http://www.imdb.com/title/tt4154664
豆瓣评分 7.0/10 from 298554 users
豆瓣链接 https://movie.douban.com/subject/26213252/
片  长 124分钟
导  演 安娜·波顿 Anna Boden / 瑞安·弗雷克 Ryan Fleck
编  剧 安娜·波顿 Anna Boden / 瑞安·弗雷克 Ryan Fleck / 吉内瓦·德沃莱特-罗宾森 Geneva Dworet-Robertson / 尼科尔·帕尔曼 Nicole Perlman / 梅格·勒福夫 Meg LeFauve
主  演 布丽·拉尔森 Brie Larson
      裘德·洛 Jude Law
      塞缪尔·杰克逊 Samuel L. Jackson
      本·门德尔森 Ben Mendelsohn
      安妮特·贝宁 Annette Bening
      麦肯娜·格瑞丝 Mckenna Grace
      克拉克·格雷格 Clark Gregg
      嘉玛·陈 Gemma Chan
      李·佩斯 Lee Pace
      杰曼·翰苏 Djimon Hounsou
      拉什纳·林奇 Lashana Lynch
      阿基拉·阿克巴 Akira Akbar
      科林·福特 Colin Ford
      卓库·莫度 Chuku Modu
      肯内特·米歇尔 Kenneth Mitchell
      罗伯特·卡辛斯基 Robert Kazinsky
      詹姆斯·莫里森 James Morrison
      皮特·普劳泽克 Pete Ploszek
      马修·马希尔 Matthew Maher
      安东尼·莫利纳利 Anthony Molinari
      马修·弗林·贝罗斯 Matthew Flynn Bellows
      加斯顿·达尔莫 Gastón Dalmau
      亚当·哈特 Adam Hart
      Mark Daugherty
      雷尼尔·鲁菲诺 Rayniel Rufino
      约翰·盖蒂尔 John Gettier
      斯坦·李 Stan Lee
      克里斯·埃文斯 Chris Evans
      斯嘉丽·约翰逊 Scarlett Johansson
      马克·鲁弗洛 Mark Ruffalo
      唐·钱德尔 Don Cheadle


标  签 漫威 | 超级豪杰 | 女性 | 美国 | 科幻 | 2019 | 漫画改编 | 行动

简  介

  在围歼斯克鲁人的战役中,克里人星际战队成员弗斯(布丽·拉尔森 Brie Larson 饰)不幸成为对方的俘虏。斯克鲁人尝试探讨弗斯的记忆,终极发现连弗斯本人都不晓得的一段往事,进而也得著名为温迪?劳森博士的女子把握着他们急于获得的时空引擎。趁对方不备,具有强大超才能的弗斯摆脱约束,逃到了代号为C-53的地球,而这里也正是她那段失落的记忆的发生地。未过量久,神盾局捕快弗瑞奸细(塞缪尔·杰克逊 Samuel L. Jackson 饰)找上门来,而紧随厥后的斯克鲁人更是激发了地球人前所未见的大纷扰。
在这一进程中,弗瑞奸细意想到局势的严重性,而且帮助弗斯认清原本的自己。倔强的弗斯,终究找到了真正需要庇护的工具……

获奖情况

  第5届豆瓣电影年度榜单(2018)
  最值得期待的外语电影(提名)




  1. Video
  2. ID             : 1
  3. Format           : AVC
  4. Format/Info          : Advanced Video Codec
  5. Format profile         : <a href="/cdn-cgi/l/email-protection" class="__cf_email__" data-cfemail="aae2c3cdc2eae69e849b">[email protected]</a>
  6. Format settings        : CABAC / 5 Ref Frames
  7. Format settings, CABAC       : Yes
  8. Format settings, ReFrames      : 5 frames
  9. Format settings, GOP       : M=1, N=3
  10. Codec ID           : V_MPEG4/ISO/AVC
  11. Duration           : 2 h 3 min
  12. Bit rate           : 8 611 kb/s
  13. Width            : 1 920 pixels
  14. Height           : 808 pixels
  15. Display aspect ratio       : 2.40:1
  16. Frame rate mode        : Constant
  17. Frame rate           : 23.976 (24000/1001) FPS
  18. Color space          : YUV
  19. Chroma subsampling       : 4:2:0
  20. Bit depth          : 8 bits
  21. Scan type          : Progressive
  22. Bits/(Pixel*Frame)       : 0.232
  23. Stream size          : 7.44 GiB (64%)
  24. Title            : Captain.Marvel.2019.1080p.BluRay.x264.DTS-HD.MA.7.1-FGT
  25. Writing library        : x264 core 157 r2970 5493be8
  26. Encoding settings        : cabac=1 / ref=5 / deblock=1:-3:-3 / analyse=0x3:0x113 / me=umh / subme=8 / psy=1 / psy_rd=1.00:0.00 / mixed_ref=1 / me_range=16 / chroma_me=1 / trellis=1 / 8x8dct=1 / cqm=0 / deadzone=21,11 / fast_pskip=1 / chroma_qp_offset=-2 / threads=25 / lookahead_threads=4 / sliced_threads=0 / nr=0 / decimate=1 / interlaced=0 / bluray_compat=0 / constrained_intra=0 / bframes=3 / b_pyramid=2 / b_adapt=1 / b_bias=0 / direct=3 / weightb=1 / open_gop=0 / weightp=2 / keyint=250 / keyint_min=23 / scenecut=40 / intra_refresh=0 / rc_lookahead=50 / rc=2pass / mbtree=1 / bitrate=8611 / ratetol=1.0 / qcomp=0.60 / qpmin=0 / qpmax=69 / qpstep=4 / cplxblur=20.0 / qblur=0.5 / ip_ratio=1.40 / aq=1:1.00
  27. Language           : English
  28. Default            : Yes
  29. Forced           : No

  30. Audio
  31. ID             : 2
  32. Format           : DTS XLL
  33. Format/Info          : Digital Theater Systems
  34. Commercial name        : DTS-HD Master Audio
  35. Codec ID           : A_DTS
  36. Duration           : 2 h 3 min
  37. Bit rate mode          : Variable
  38. Bit rate           : 4 777 kb/s
  39. Channel(s)           : 8 channels
  40. Channel layout         : C L R LFE Lb Rb Lss Rss
  41. Sampling rate          : 48.0 kHz
  42. Frame rate           : 93.750 FPS (512 SPF)
  43. Bit depth          : 24 bits
  44. Compression mode         : Lossless
  45. Stream size          : 4.13 GiB (36%)
  46. Title            : Captain.Marvel.2019.1080p.BluRay.x264.DTS-HD.MA.7.1-FGT
  47. Language           : English
  48. Default            : Yes
  49. Forced           : No

  50. Text #1
  51. ID             : 3
  52. Format           : UTF-8
  53. Codec ID           : S_TEXT/UTF8
  54. Codec ID/Info          : UTF-8 Plain Text
  55. Duration           : 1 h 53 min
  56. Bit rate           : 47 b/s
  57. Count of elements        : 1422
  58. Stream size          : 39.7 KiB (0%)
  59. Title            : English-SRT
  60. Language           : English
  61. Default            : Yes
  62. Forced           : No

  63. Text #2
  64. ID             : 4
  65. Format           : PGS
  66. Muxing mode          : zlib
  67. Codec ID           : S_HDMV/PGS
  68. Codec ID/Info          : Picture based subtitle format used on BDs/HD-DVDs
  69. Duration           : 2 h 2 min
  70. Bit rate           : 33.1 kb/s
  71. Count of elements        : 3330
  72. Stream size          : 29.0 MiB (0%)
  73. Title            : English-PGS
  74. Language           : English
  75. Default            : No
  76. Forced           : No

  77. Menu
  78. 00:00:00.000         : en:00:00:00.000
  79. 00:06:52.120         : en:00:06:52.120
  80. 00:14:07.889         : en:00:14:07.889
  81. 00:23:18.272         : en:00:23:18.272
  82. 00:29:38.026         : en:00:29:38.026
  83. 00:35:07.772         : en:00:35:07.772
  84. 00:44:08.437         : en:00:44:08.437
  85. 00:50:43.499         : en:00:50:43.499
  86. 00:56:18.625         : en:00:56:18.625
  87. 01:03:02.821         : en:01:03:02.821
  88. 01:11:17.398         : en:01:11:17.398
  89. 01:17:49.164         : en:01:17:49.164
  90. 01:27:03.051         : en:01:27:03.051
  91. 01:33:22.430         : en:01:33:22.430
  92. 01:40:51.796         : en:01:40:51.796
  93. 01:46:25.087         : en:01:46:25.087
  94. 01:52:49.888         : en:01:52:49.888
复制代码

复制代码

惊奇队长 Captain.Marvel.2019.1080p.BluRay.x264.DTS-HD.MA.7.1-FGT 11.58GB-2.png 惊奇队长 Captain.Marvel.2019.1080p.BluRay.x264.DTS-HD.MA.7.1-FGT 11.58GB-3.png 惊奇队长 Captain.Marvel.2019.1080p.BluRay.x264.DTS-HD.MA.7.1-FGT 11.58GB-4.png c2c7354c97ec8d835afcf88707069422.jpg 8012d4dbdc6c4c74c7ce3af12bde845d.jpg 18124d28f83c03a4c821b7a46da269e6.jpg 26f4982f1966e7cdd052275a04dbdff2.jpg







开通VIP免费下载本站所有资源---点这里
新手必看:资源下载、资源播放、字幕使用、等常见问题---点这里
回复

使用道具 举报

发表于 2019-5-30 14:12:22 | 显示全部楼层

感谢楼主的无私分享!
开通VIP免费下载本站所有资源---点这里
新手必看:资源下载、资源播放、字幕使用、等常见问题---点这里
回复 支持 1 反对 0

使用道具 举报

发表于 2019-5-30 12:02:48 | 显示全部楼层
布丽·拉尔森 Brie Larson
      裘德·洛 Jude Law
开通VIP免费下载本站所有资源---点这里
新手必看:资源下载、资源播放、字幕使用、等常见问题---点这里
回复 支持 反对

使用道具 举报

发表于 2019-5-30 12:41:25 | 显示全部楼层

布丽·拉尔森 Brie Larson
      裘德·洛 Jude Law
开通VIP免费下载本站所有资源---点这里
新手必看:资源下载、资源播放、字幕使用、等常见问题---点这里
回复 支持 反对

使用道具 举报

发表于 2019-5-30 13:03:09 | 显示全部楼层
好片好片!!顶一个
开通VIP免费下载本站所有资源---点这里
新手必看:资源下载、资源播放、字幕使用、等常见问题---点这里
回复 支持 反对

使用道具 举报

发表于 2019-5-30 13:06:20 | 显示全部楼层

楼主太厉害了!楼主,电影应该很好看我觉得蓝光电影网真是个好地方!
开通VIP免费下载本站所有资源---点这里
新手必看:资源下载、资源播放、字幕使用、等常见问题---点这里
回复 支持 反对

使用道具 举报

发表于 2019-5-30 13:06:39 | 显示全部楼层
支持一下!!!!!!!!!!
开通VIP免费下载本站所有资源---点这里
新手必看:资源下载、资源播放、字幕使用、等常见问题---点这里
回复

使用道具 举报

发表于 2019-5-30 13:27:18 | 显示全部楼层
楼主发贴辛苦了,谢谢楼主分享!我觉得蓝光电影网是注册对了!
开通VIP免费下载本站所有资源---点这里
新手必看:资源下载、资源播放、字幕使用、等常见问题---点这里
回复 支持 反对

使用道具 举报

发表于 2019-5-30 13:54:46 | 显示全部楼层
楼主辛苦!!!!!!!!
开通VIP免费下载本站所有资源---点这里
新手必看:资源下载、资源播放、字幕使用、等常见问题---点这里
回复

使用道具 举报

发表于 2019-5-30 13:55:16 | 显示全部楼层
多谢多谢 谢谢楼主
开通VIP免费下载本站所有资源---点这里
新手必看:资源下载、资源播放、字幕使用、等常见问题---点这里
回复 支持 反对

使用道具 举报

懒得打字嘛,点击右侧快捷回复 【右侧内容,后台自定义】
您需要登录后才可以回帖 登录 | 立即加入

本版积分规则

现在加入蓝光电影网,注册一个账号

QQ| 手机版|小黑屋| 蓝光电影网 |网站地图

Copyright © 2015-2019 Comsenz Inc.  Template by 蓝光电影网 All Rights Reserved.

Powered by 蓝光电影网 X3.4

特别声明:本站所有资源均由网上收集而来,版权归原影音公司所有,如果侵犯了你的权益,请通知我们,我们会及时删除侵权内容.

快速回复 返回顶部 返回列表