找回密码

蓝光电影网

查看: 208|回复: 12

阴风阵阵/坐立不安 Suspiria.1977.ITALIAN.2160p.BluRay.REMUX.HEVC.SDR.DTS-HD.MA.5.1-FGT 54.71GB

[复制链接]

 成长值: 17290

签到天数: 401 天

[LV.9]以坛为家II

发表于 2018-10-11 17:47:37 | 显示全部楼层 |阅读模式

马上注册,获取最新影视资讯,享用更多功能,让你轻松玩转蓝光电影网。

您需要 登录 才可以下载或查看,没有帐号?立即加入

x

阴风阵阵/坐立不安 Suspiria.1977.ITALIAN.2160p.BluRay.REMUX.HEVC.SDR.DTS-HD.MA.5.1-FGT 54.71GB-1.jpg
◎译  名 阴风阵阵/坐立不安
◎片  名 Suspiria
◎年  代 1977
◎产  地 意大利
◎类  别 恐怖
◎语  言 意大利语/俄语/英语/德语/拉丁语
◎上映日期 1977-02-01
◎IMDb评分  7.5/10 from 59,170 users
◎IMDb链接  http://www.imdb.com/title/tt0076786/
◎豆瓣评分 7.3/10 from 7,911 users
◎豆瓣链接 https://movie.douban.com/subject/1296332/
◎片  长 98分钟/101分钟(修复版)
◎导  演 达里奥·阿基多 Dario Argento
◎主  演 杰西卡·哈珀 Jessica Harper
      斯蒂芬妮娅·卡西尼 Stefania Casini
      弗拉维奥·布奇 Flavio Bucci
      米盖尔·波斯 Miguel Bosé
      芭芭拉·马尼奥尔菲 Barbara Magnolfi
      苏珊娜·亚维科利 Susanna Javicoli
      埃娃·阿克森 Eva Axén
      鲁道夫·申德勒 Rudolf Schündler
      乌多·奇尔 Udo Kier
      阿莉达·瓦莉 Alida Valli
      琼·贝内特 Joan Bennett
      玛格丽特·霍洛维茨 Margherita Horowitz
      Jacopo Mariani
      Fulvio Mingozzi
      弗兰卡·斯坎列蒂 Franca Scagnetti

◎简  介

  在一场瓢泼大雨之中,孱弱的女子苏西(杰西卡·哈珀 Jessica Harper 饰)孤身一人来到德国,前往那里的芭蕾舞学校学习舞蹈。刚刚抵达的苏西看到一位女子从学校的大门里狂奔而出,口中念念有词,随后消失在了雨幕之中,让苏西没有想到的是,第二天,她便听闻了这位女子的死讯。
  很快,苏西便发现这所学校里的同学并不如她想象的那样友善,她的室友更是一个唯利是图的女人,而苏西结交到的唯一一个朋友,竟然同先前死去的女生是好友。在她的口中,苏西听说了学校里女巫作祟诅咒横行的传言,而接连出现的诡异现象亦让苏西慢慢察觉到,在这所阴森的学校中,隐藏着不可告人的秘密。
  • Video
  • ID                                       : 1
  • Format                                   : HEVC
  • Format/Info                              : High Efficiency Video Coding
  • Format profile                           : Main [email protected]@High
  • Codec ID                                 : V_MPEGH/ISO/HEVC
  • Duration                                 : 1 h 40 min
  • Bit rate                                 : 64.8 Mb/s
  • Width                                    : 3 840 pixels
  • Height                                   : 2 160 pixels
  • Display aspect ratio                     : 16:9
  • Frame rate mode                          : Constant
  • Frame rate                               : 24.000 FPS
  • Standard                                 : Component
  • Color space                              : YUV
  • Chroma subsampling                       : 4:2:0
  • Bit depth                                : 10 bits
  • Bits/(Pixel*Frame)                       : 0.325
  • Stream size                              : 45.6 GiB (83%)
  • Title                                    : Suspiria.1977.ITALIAN.2160p.BluRay.REMUX.HEVC.DTS-HD.MA.5.1-FGT
  • Default                                  : Yes
  • Forced                                   : No
  • Color range                              : Limited
  • Color primaries                          : BT.709
  • Transfer characteristics                 : BT.709
  • Matrix coefficients                      : BT.709
  • Audio #1
  • ID                                       : 2
  • Format                                   : DTS XLL
  • Format/Info                              : Digital Theater Systems
  • Commercial name                          : DTS-HD Master Audio
  • Codec ID                                 : A_DTS
  • Duration                                 : 1 h 39 min
  • Bit rate mode                            : Variable
  • Bit rate                                 : 2 036 kb/s
  • Channel(s)                               : 6 channels
  • Channel layout                           : C L R Ls Rs LFE
  • Sampling rate                            : 48.0 kHz
  • Frame rate                               : 93.750 FPS (512 SPF)
  • Bit depth                                : 16 bits
  • Compression mode                         : Lossless
  • Stream size                              : 1.41 GiB (3%)
  • Title                                    : Suspiria.1977.ITALIAN.2160p.BluRay.REMUX.HEVC.DTS-HD.MA.5.1-FGT
  • Language                                 : Italian
  • Default                                  : Yes
  • Forced                                   : No
  • Audio #2
  • ID                                       : 3
  • Format                                   : DTS XLL
  • Format/Info                              : Digital Theater Systems
  • Commercial name                          : DTS-HD Master Audio
  • Codec ID                                 : A_DTS
  • Duration                                 : 1 h 39 min
  • Bit rate mode                            : Variable
  • Bit rate                                 : 1 589 kb/s
  • Channel(s)                               : 2 channels
  • Channel layout                           : L R
  • Sampling rate                            : 48.0 kHz
  • Frame rate                               : 93.750 FPS (512 SPF)
  • Bit depth                                : 16 bits
  • Compression mode                         : Lossless
  • Stream size                              : 1.10 GiB (2%)
  • Title                                    : Suspiria.1977.ITALIAN.2160p.BluRay.REMUX.HEVC.DTS-HD.MA.5.1-FGT
  • Language                                 : Italian
  • Default                                  : No
  • Forced                                   : No
  • Audio #3
  • ID                                       : 4
  • Format                                   : PCM
  • Format settings                          : Little / Signed
  • Codec ID                                 : A_PCM/INT/LIT
  • Duration                                 : 1 h 39 min
  • Bit rate mode                            : Constant
  • Bit rate                                 : 1 536 kb/s
  • Channel(s)                               : 2 channels
  • Sampling rate                            : 48.0 kHz
  • Frame rate                               : 200.000 FPS (240 SPF)
  • Bit depth                                : 16 bits
  • Stream size                              : 1.06 GiB (2%)
  • Title                                    : Suspiria.1977.ITALIAN.2160p.BluRay.REMUX.HEVC.DTS-HD.MA.5.1-FGT
  • Language                                 : Italian
  • Default                                  : No
  • Forced                                   : No
  • Audio #4
  • ID                                       : 5
  • Format                                   : PCM
  • Format settings                          : Little / Signed
  • Codec ID                                 : A_PCM/INT/LIT
  • Duration                                 : 1 h 39 min
  • Bit rate mode                            : Constant
  • Bit rate                                 : 2 304 kb/s
  • Channel(s)                               : 2 channels
  • Sampling rate                            : 48.0 kHz
  • Frame rate                               : 200.000 FPS (240 SPF)
  • Bit depth                                : 24 bits
  • Stream size                              : 1.59 GiB (3%)
  • Title                                    : Suspiria.1977.ITALIAN.2160p.BluRay.REMUX.HEVC.DTS-HD.MA.5.1-FGT
  • Language                                 : English
  • Default                                  : No
  • Forced                                   : No
  • Audio #5
  • ID                                       : 6
  • Format                                   : DTS XLL
  • Format/Info                              : Digital Theater Systems
  • Commercial name                          : DTS-HD Master Audio
  • Codec ID                                 : A_DTS
  • Duration                                 : 1 h 39 min
  • Bit rate mode                            : Variable
  • Bit rate                                 : 1 625 kb/s
  • Channel(s)                               : 2 channels
  • Channel layout                           : L R
  • Sampling rate                            : 48.0 kHz
  • Frame rate                               : 93.750 FPS (512 SPF)
  • Bit depth                                : 16 bits
  • Compression mode                         : Lossless
  • Stream size                              : 1.13 GiB (2%)
  • Title                                    : Suspiria.1977.ITALIAN.2160p.BluRay.REMUX.HEVC.DTS-HD.MA.5.1-FGT
  • Language                                 : English
  • Default                                  : No
  • Forced                                   : No
  • Audio #6
  • ID                                       : 7
  • Format                                   : DTS XLL
  • Format/Info                              : Digital Theater Systems
  • Commercial name                          : DTS-HD Master Audio
  • Codec ID                                 : A_DTS
  • Duration                                 : 1 h 39 min
  • Bit rate mode                            : Variable
  • Bit rate                                 : 4 000 kb/s
  • Channel(s)                               : 6 channels
  • Channel layout                           : C L R Ls Rs LFE
  • Sampling rate                            : 48.0 kHz
  • Frame rate                               : 93.750 FPS (512 SPF)
  • Bit depth                                : 24 bits
  • Compression mode                         : Lossless
  • Stream size                              : 2.77 GiB (5%)
  • Title                                    : Suspiria.1977.ITALIAN.2160p.BluRay.REMUX.HEVC.DTS-HD.MA.5.1-FGT
  • Language                                 : English
  • Default                                  : No
  • Forced                                   : No
  • Text #1
  • ID                                       : 8
  • Format                                   : PGS
  • Muxing mode                              : zlib
  • Codec ID                                 : S_HDMV/PGS
  • Codec ID/Info                            : Picture based subtitle format used on BDs/HD-DVDs
  • Duration                                 : 1 h 33 min
  • Bit rate                                 : 19.8 kb/s
  • Count of elements                        : 1210
  • Stream size                              : 13.2 MiB (0%)
  • Title                                    : English-PGS
  • Language                                 : English
  • Default                                  : Yes
  • Forced                                   : Yes
  • Text #2
  • ID                                       : 9
  • Format                                   : PGS
  • Muxing mode                              : zlib
  • Codec ID                                 : S_HDMV/PGS
  • Codec ID/Info                            : Picture based subtitle format used on BDs/HD-DVDs
  • Duration                                 : 1 h 33 min
  • Bit rate                                 : 18.4 kb/s
  • Count of elements                        : 1216
  • Stream size                              : 12.2 MiB (0%)
  • Title                                    : Italian-PGS
  • Language                                 : Italian
  • Default                                  : No
  • Forced                                   : No
  • Text #3
  • ID                                       : 10
  • Format                                   : PGS
  • Muxing mode                              : zlib
  • Codec ID                                 : S_HDMV/PGS
  • Codec ID/Info                            : Picture based subtitle format used on BDs/HD-DVDs
  • Duration                                 : 3 s 625 ms
  • Bit rate                                 : 4 886 b/s
  • Count of elements                        : 2
  • Stream size                              : 2.16 KiB (0%)
  • Title                                    : Italian-FORCED-PGS
  • Language                                 : Italian
  • Default                                  : No
  • Forced                                   : No
  • Menu
  • 00:00:00.000                             : :Chapter 1
  • 00:08:10.458                             : :Chapter 2
  • 00:14:31.916                             : :Chapter 3
  • 00:24:42.208                             : :Chapter 4
  • 00:32:14.750                             : :Chapter 5
  • 00:43:11.875                             : :Chapter 6
  • 00:49:28.875                             : :Chapter 7
  • 00:57:43.208                             : :Chapter 8
  • 01:09:02.041                             : :Chapter 9
  • 01:16:44.250                             : :Chapter 10
  • 01:22:54.875                             : :Chapter 11
  • 01:32:12.000                             : :Chapter 12

复制代码

阴风阵阵/坐立不安 Suspiria.1977.ITALIAN.2160p.BluRay.REMUX.HEVC.SDR.DTS-HD.MA.5.1-FGT 54.71GB-2.png 阴风阵阵/坐立不安 Suspiria.1977.ITALIAN.2160p.BluRay.REMUX.HEVC.SDR.DTS-HD.MA.5.1-FGT 54.71GB-3.png 阴风阵阵/坐立不安 Suspiria.1977.ITALIAN.2160p.BluRay.REMUX.HEVC.SDR.DTS-HD.MA.5.1-FGT 54.71GB-4.png





Suspiria.1977.ITALIAN.2160p.BluRay.REMUX.HEVC.SDR.DTS-HD.MA.5.1-FGT.torrent (137.34 KB, 下载次数: 11)

特别声明:本站所有资源均由网上收集而来,版权归原影音公司所有,如果侵犯了你的权益,请通知我们,我们会及时删除侵权内容.

免费下载本站所有资源---点这里
迅雷 应版权方要求,文件无法下载的解决办法---点这里
回复

使用道具 举报

签到天数: 56 天

[LV.5]常住居民I

发表于 2018-10-11 19:30:46 | 显示全部楼层
真是不错的电影 有空下载来看看
[发帖际遇]: btfans 发帖时在路边捡到 2 蓝光币,偷偷放进了口袋. 幸运榜 / 衰神榜
免费下载本站所有资源---点这里
迅雷 应版权方要求,文件无法下载的解决办法---点这里
回复 支持 反对

使用道具 举报

签到天数: 38 天

[LV.5]常住居民I

发表于 2018-10-11 23:03:10 | 显示全部楼层
强烈支持楼主ing……
免费下载本站所有资源---点这里
迅雷 应版权方要求,文件无法下载的解决办法---点这里
回复 支持 反对

使用道具 举报

签到天数: 77 天

[LV.6]常住居民II

发表于 7 天前 | 显示全部楼层
强烈支持楼主ing……
免费下载本站所有资源---点这里
迅雷 应版权方要求,文件无法下载的解决办法---点这里
回复 支持 反对

使用道具 举报

签到天数: 240 天

[LV.8]以坛为家I

发表于 7 天前 | 显示全部楼层
看到这帖子真是高兴!
免费下载本站所有资源---点这里
迅雷 应版权方要求,文件无法下载的解决办法---点这里
回复 支持 反对

使用道具 举报

签到天数: 122 天

[LV.7]常住居民III

发表于 7 天前 | 显示全部楼层
淡定,淡定,淡定……
[发帖际遇]: chuchan 乐于助人,奖励 1 蓝光币. 幸运榜 / 衰神榜
免费下载本站所有资源---点这里
迅雷 应版权方要求,文件无法下载的解决办法---点这里
回复 支持 反对

使用道具 举报

签到天数: 46 天

[LV.5]常住居民I

发表于 7 天前 | 显示全部楼层
谢谢分享谢谢分享
免费下载本站所有资源---点这里
迅雷 应版权方要求,文件无法下载的解决办法---点这里
回复 支持 反对

使用道具 举报

签到天数: 3 天

[LV.2]偶尔看看I

发表于 7 天前 | 显示全部楼层
强烈支持楼主ing……
免费下载本站所有资源---点这里
迅雷 应版权方要求,文件无法下载的解决办法---点这里
回复 支持 反对

使用道具 举报

该用户从未签到

发表于 7 天前 | 显示全部楼层
看到这帖子真是高兴!
免费下载本站所有资源---点这里
迅雷 应版权方要求,文件无法下载的解决办法---点这里
回复 支持 反对

使用道具 举报

 成长值: 850

该用户从未签到

发表于 7 天前 | 显示全部楼层
感谢分享
免费下载本站所有资源---点这里
迅雷 应版权方要求,文件无法下载的解决办法---点这里
回复

使用道具 举报

点击按钮快速添加回复内容: 支持 高兴 激动 给力 加油 淡定 生气 回帖 路过 感动 感恩
您需要登录后才可以回帖 登录 | 立即加入

本版积分规则

现在加入蓝光电影网,注册一个账号

QQ| 手机版|小黑屋| 蓝光电影网 |

Copyright © 2001-2015 Comsenz Inc.  Template by 蓝光电影论坛 All Rights Reserved.

Powered by 高清电影网 X3.2
特别声明:本站所有资源均由网上收集而来,版权归原影音公司所有,如果侵犯了你的权益,请通知我们,我们会及时删除侵权内容.

快速回复 返回顶部 返回列表