找回密码

蓝光电影网

查看: 281|回复: 18

韩赛尔与格蕾特:女巫猎人/格林双侠:猎巫世纪 Hansel.and.Gretel.Witch.Hunters.2013.2160p.BluRay.x264.8bit.SDR.TrueHD.5.1-SWTYBLZ 23.63GB

[复制链接]

 成长值: 17290

签到天数: 401 天

[LV.9]以坛为家II

发表于 2018-10-11 17:46:25 | 显示全部楼层 |阅读模式

马上注册,获取最新影视资讯,享用更多功能,让你轻松玩转蓝光电影网。

您需要 登录 才可以下载或查看,没有帐号?立即加入

x

韩赛尔与格蕾特:女巫猎人/格林双侠:猎巫世纪 Hansel.and.Gretel.Witch.Hunters.2013.2160p.BluRay.x264.8bit.SDR.TrueHD.5.1-SWTYBLZ 23.63GB-1.jpg
◎译  名 韩赛尔与格蕾特:女巫猎人/格林双侠:猎巫世纪(港)/女巫猎人(台)/汉斯和格莱泰:女巫猎人/女巫猎手
◎片  名 Hansel and Gretel: Witch Hunters
◎年  代 2013
◎产  地 德国/美国
◎类  别 动作/恐怖/奇幻
◎语  言 英语
◎上映日期 2013-01-25(美国)
◎IMDb评分  6.1/10 from 177,956 users
◎IMDb链接  http://www.imdb.com/title/tt1428538/
◎豆瓣评分 6.0/10 from 17,427 users
◎豆瓣链接 https://movie.douban.com/subject/3718323/
◎片  长 88分钟/98分钟(未分级版)
◎导  演 托米·维尔科拉 Tommy Wirkola
◎主  演 杰瑞米·雷纳 Jeremy Renner
      杰玛·阿特登 Gemma Arterton
      法米克·詹森 Famke Janssen
      托马斯·曼 Thomas Mann
      彼得·斯特曼 Peter Stormare
      菲拉·维塔拉 Pihla Viitala
      德里克·梅耶斯 Derek Mears
      罗宾·阿特金·唐斯 Robin Atkin Downes
      英格丽德·波尔索·贝达尔 Ingrid Bols? Berdal
      乔安娜·库里格 Joanna Kulig
      比约恩·桑德奎斯特 Bj?rn Sundquist
      赖纳·博克 Rainer Bock
      托马斯·沙夫 Thomas Scharff
      凯瑟琳·库内尔 Kathrin Kühnel
      塞德里克·伊奇 Cedric Eich
      佐伊·贝尔 Zoe Bell
      莫妮卡·甘德顿 Monique Ganderton
      弗里茨罗斯 Fritz Roth

◎简  介

  在童年时代便消灭了糖果屋女巫的孤儿兄妹韩赛尔(杰瑞米·雷纳 Jeremy Renner 饰)与格蕾特(杰玛·阿特登 Gemma Arterton 饰),多年来成为邪恶女巫的最大克星。在帮助小镇奥古斯伯格寻找失踪的孩子以及隐藏女巫之时,兄妹二人发现三天后即将出现“血月”(月蚀),这对女巫们来说是无比重要和神圣的时刻。两兄妹迅速投入行动,而讨厌他们俩的警长也招来一伙人马追查女巫们的行踪。未过多久,女巫头目(法米克·詹森 Famke Janssen 饰)率领手下袭击小镇,与兄妹二人展开正面冲突。激战过后,格蕾特遭到重创,韩赛尔也随着女巫消失下落不明。
  正邪的较量渐次升级,兄妹俩在这一过程中也渐渐知晓关于他们童年以及父母背后的秘密……
  • Video
  • ID                                       : 1
  • Format                                   : AVC
  • Format/Info                              : Advanced Video Codec
  • Format profile                           : [email protected]
  • Format settings                          : CABAC / 5 Ref Frames
  • Format settings, CABAC                   : Yes
  • Format settings, RefFrames               : 5 frames
  • Codec ID                                 : V_MPEG4/ISO/AVC
  • Duration                                 : 1 h 27 min
  • Bit rate                                 : 33.9 Mb/s
  • Width                                    : 3 840 pixels
  • Height                                   : 1 600 pixels
  • Display aspect ratio                     : 2.40:1
  • Frame rate mode                          : Constant
  • Frame rate                               : 23.976 (24000/1001) FPS
  • Color space                              : YUV
  • Chroma subsampling                       : 4:2:0
  • Bit depth                                : 8 bits
  • Scan type                                : Progressive
  • Bits/(Pixel*Frame)                       : 0.230
  • Stream size                              : 20.8 GiB (88%)
  • Title                                    : Hansel.and.Gretel.Witch.Hunters.2013.2160p.BluRay.x264.8bit.SDR.TrueHD.5.1-SWTYBLZ
  • Writing library                          : x264 core 155 r2901 7d0ff22
  • Encoding settings                        : cabac=1 / ref=5 / deblock=1:-1:-1 / analyse=0x3:0x113 / me=umh / subme=10 / psy=1 / psy_rd=1.00:0.15 / mixed_ref=1 / me_range=48 / chroma_me=1 / trellis=2 / 8x8dct=1 / cqm=0 / deadzone=21,11 / fast_pskip=1 / chroma_qp_offset=-3 / threads=48 / lookahead_threads=4 / sliced_threads=0 / nr=0 / decimate=0 / interlaced=0 / bluray_compat=0 / constrained_intra=0 / bframes=3 / b_pyramid=2 / b_adapt=2 / b_bias=0 / direct=3 / weightb=1 / open_gop=0 / weightp=2 / keyint=250 / keyint_min=23 / scenecut=40 / intra_refresh=0 / rc_lookahead=50 / rc=crf / mbtree=1 / crf=18.0 / qcomp=0.60 / qpmin=0 / qpmax=69 / qpstep=4 / ip_ratio=1.40 / aq=1:1.00
  • Default                                  : Yes
  • Forced                                   : No
  • Audio #1
  • ID                                       : 2
  • Format                                   : MLP FBA
  • Format/Info                              : Meridian Lossless Packing FBA
  • Commercial name                          : Dolby TrueHD
  • Codec ID                                 : A_TRUEHD
  • Duration                                 : 1 h 27 min
  • Bit rate mode                            : Variable
  • Bit rate                                 : 3 526 kb/s
  • Maximum bit rate                         : 4 860 kb/s
  • Channel(s)                               : 6 channels
  • Channel layout                           : L R C LFE Ls Rs
  • Sampling rate                            : 48.0 kHz
  • Frame rate                               : 1 200.000 FPS (40 SPF)
  • Compression mode                         : Lossless
  • Stream size                              : 2.17 GiB (9%)
  • Title                                    : Hansel.and.Gretel.Witch.Hunters.2013.2160p.BluRay.x264.8bit.SDR.TrueHD.5.1-SWTYBLZ
  • Language                                 : English
  • Default                                  : Yes
  • Forced                                   : No
  • Audio #2
  • ID                                       : 3
  • Format                                   : AC-3
  • Format/Info                              : Audio Coding 3
  • Commercial name                          : Dolby Digital
  • Codec ID                                 : A_AC3
  • Duration                                 : 1 h 27 min
  • Bit rate mode                            : Constant
  • Bit rate                                 : 640 kb/s
  • Channel(s)                               : 6 channels
  • Channel layout                           : L R C LFE Ls Rs
  • Sampling rate                            : 48.0 kHz
  • Frame rate                               : 31.250 FPS (1536 SPF)
  • Bit depth                                : 16 bits
  • Compression mode                         : Lossy
  • Stream size                              : 403 MiB (2%)
  • Title                                    : Hansel.and.Gretel.Witch.Hunters.2013.2160p.BluRay.x264.8bit.SDR.TrueHD.5.1-SWTYBLZ
  • Language                                 : English
  • Service kind                             : Complete Main
  • Default                                  : No
  • Forced                                   : No
  • Text #1
  • ID                                       : 4
  • Format                                   : UTF-8
  • Codec ID                                 : S_TEXT/UTF8
  • Codec ID/Info                            : UTF-8 Plain Text
  • Duration                                 : 1 h 19 min
  • Bit rate                                 : 35 b/s
  • Count of elements                        : 795
  • Stream size                              : 20.6 KiB (0%)
  • Title                                    : English-SRT
  • Language                                 : English
  • Default                                  : Yes
  • Forced                                   : No
  • Text #2
  • ID                                       : 5
  • Format                                   : UTF-8
  • Codec ID                                 : S_TEXT/UTF8
  • Codec ID/Info                            : UTF-8 Plain Text
  • Duration                                 : 1 h 19 min
  • Bit rate                                 : 35 b/s
  • Count of elements                        : 805
  • Stream size                              : 20.8 KiB (0%)
  • Title                                    : English-SDH-SRT
  • Language                                 : English
  • Default                                  : No
  • Forced                                   : No
  • Text #3
  • ID                                       : 6
  • Format                                   : PGS
  • Muxing mode                              : zlib
  • Codec ID                                 : S_HDMV/PGS
  • Codec ID/Info                            : Picture based subtitle format used on BDs/HD-DVDs
  • Duration                                 : 1 h 19 min
  • Bit rate                                 : 21.5 kb/s
  • Count of elements                        : 1590
  • Stream size                              : 12.3 MiB (0%)
  • Title                                    : English-PGS
  • Language                                 : English
  • Default                                  : No
  • Forced                                   : No
  • Text #4
  • ID                                       : 7
  • Format                                   : PGS
  • Muxing mode                              : zlib
  • Codec ID                                 : S_HDMV/PGS
  • Codec ID/Info                            : Picture based subtitle format used on BDs/HD-DVDs
  • Duration                                 : 1 h 21 min
  • Bit rate                                 : 26.9 kb/s
  • Count of elements                        : 2086
  • Stream size                              : 15.7 MiB (0%)
  • Title                                    : English-SDH-PGS
  • Language                                 : English
  • Default                                  : No
  • Forced                                   : No
  • Text #5
  • ID                                       : 8
  • Format                                   : PGS
  • Muxing mode                              : zlib
  • Codec ID                                 : S_HDMV/PGS
  • Codec ID/Info                            : Picture based subtitle format used on BDs/HD-DVDs
  • Duration                                 : 1 h 26 min
  • Bit rate                                 : 9 898 b/s
  • Count of elements                        : 1472
  • Stream size                              : 6.11 MiB (0%)
  • Title                                    : Arabic-PGS
  • Language                                 : Arabic
  • Default                                  : No
  • Forced                                   : No
  • Text #6
  • ID                                       : 9
  • Format                                   : PGS
  • Muxing mode                              : zlib
  • Codec ID                                 : S_HDMV/PGS
  • Codec ID/Info                            : Picture based subtitle format used on BDs/HD-DVDs
  • Duration                                 : 1 h 26 min
  • Bit rate                                 : 23.6 kb/s
  • Count of elements                        : 1618
  • Stream size                              : 14.6 MiB (0%)
  • Title                                    : Malay-PGS
  • Language                                 : Malay
  • Default                                  : No
  • Forced                                   : No
  • Text #7
  • ID                                       : 10
  • Format                                   : PGS
  • Muxing mode                              : zlib
  • Codec ID                                 : S_HDMV/PGS
  • Codec ID/Info                            : Picture based subtitle format used on BDs/HD-DVDs
  • Duration                                 : 1 h 26 min
  • Bit rate                                 : 14.3 kb/s
  • Count of elements                        : 1476
  • Stream size                              : 8.85 MiB (0%)
  • Title                                    : Chinese-PGS
  • Language                                 : Chinese
  • Default                                  : No
  • Forced                                   : No
  • Text #8
  • ID                                       : 11
  • Format                                   : PGS
  • Muxing mode                              : zlib
  • Codec ID                                 : S_HDMV/PGS
  • Codec ID/Info                            : Picture based subtitle format used on BDs/HD-DVDs
  • Duration                                 : 1 h 26 min
  • Bit rate                                 : 17.0 kb/s
  • Count of elements                        : 1476
  • Stream size                              : 10.5 MiB (0%)
  • Title                                    : Czech-PGS
  • Language                                 : Czech
  • Default                                  : No
  • Forced                                   : No
  • Text #9
  • ID                                       : 12
  • Format                                   : PGS
  • Muxing mode                              : zlib
  • Codec ID                                 : S_HDMV/PGS
  • Codec ID/Info                            : Picture based subtitle format used on BDs/HD-DVDs
  • Duration                                 : 1 h 26 min
  • Bit rate                                 : 21.9 kb/s
  • Count of elements                        : 1620
  • Stream size                              : 13.5 MiB (0%)
  • Title                                    : German-PGS
  • Language                                 : German
  • Default                                  : No
  • Forced                                   : No
  • Text #10
  • ID                                       : 13
  • Format                                   : PGS
  • Muxing mode                              : zlib
  • Codec ID                                 : S_HDMV/PGS
  • Codec ID/Info                            : Picture based subtitle format used on BDs/HD-DVDs
  • Duration                                 : 1 h 26 min
  • Bit rate                                 : 19.8 kb/s
  • Count of elements                        : 1472
  • Stream size                              : 12.2 MiB (0%)
  • Title                                    : Greek-PGS
  • Language                                 : Greek
  • Default                                  : No
  • Forced                                   : No
  • Text #11
  • ID                                       : 14
  • Format                                   : PGS
  • Muxing mode                              : zlib
  • Codec ID                                 : S_HDMV/PGS
  • Codec ID/Info                            : Picture based subtitle format used on BDs/HD-DVDs
  • Duration                                 : 1 h 26 min
  • Bit rate                                 : 20.1 kb/s
  • Count of elements                        : 1500
  • Stream size                              : 12.4 MiB (0%)
  • Title                                    : Spanish-PGS
  • Language                                 : Spanish
  • Default                                  : No
  • Forced                                   : No
  • Text #12
  • ID                                       : 15
  • Format                                   : PGS
  • Muxing mode                              : zlib
  • Codec ID                                 : S_HDMV/PGS
  • Codec ID/Info                            : Picture based subtitle format used on BDs/HD-DVDs
  • Duration                                 : 1 h 19 min
  • Bit rate                                 : 20.2 kb/s
  • Count of elements                        : 1458
  • Stream size                              : 11.5 MiB (0%)
  • Title                                    : Spanish-PGS
  • Language                                 : Spanish
  • Default                                  : No
  • Forced                                   : No
  • Text #13
  • ID                                       : 16
  • Format                                   : PGS
  • Muxing mode                              : zlib
  • Codec ID                                 : S_HDMV/PGS
  • Codec ID/Info                            : Picture based subtitle format used on BDs/HD-DVDs
  • Duration                                 : 1 h 26 min
  • Bit rate                                 : 16.8 kb/s
  • Count of elements                        : 1512
  • Stream size                              : 10.4 MiB (0%)
  • Title                                    : French-PGS
  • Language                                 : French
  • Default                                  : No
  • Forced                                   : No
  • Text #14
  • ID                                       : 17
  • Format                                   : PGS
  • Muxing mode                              : zlib
  • Codec ID                                 : S_HDMV/PGS
  • Codec ID/Info                            : Picture based subtitle format used on BDs/HD-DVDs
  • Duration                                 : 1 h 19 min
  • Bit rate                                 : 22.2 kb/s
  • Count of elements                        : 1618
  • Stream size                              : 12.6 MiB (0%)
  • Title                                    : French-PGS
  • Language                                 : French
  • Default                                  : No
  • Forced                                   : No
  • Text #15
  • ID                                       : 18
  • Format                                   : PGS
  • Muxing mode                              : zlib
  • Codec ID                                 : S_HDMV/PGS
  • Codec ID/Info                            : Picture based subtitle format used on BDs/HD-DVDs
  • Duration                                 : 1 h 26 min
  • Bit rate                                 : 31.8 kb/s
  • Count of elements                        : 2170
  • Stream size                              : 19.7 MiB (0%)
  • Title                                    : Hindi-PGS
  • Language                                 : Hindi
  • Default                                  : No
  • Forced                                   : No
  • Text #16
  • ID                                       : 19
  • Format                                   : PGS
  • Muxing mode                              : zlib
  • Codec ID                                 : S_HDMV/PGS
  • Codec ID/Info                            : Picture based subtitle format used on BDs/HD-DVDs
  • Duration                                 : 1 h 26 min
  • Bit rate                                 : 19.1 kb/s
  • Count of elements                        : 1472
  • Stream size                              : 11.8 MiB (0%)
  • Title                                    : Icelandic-PGS
  • Language                                 : Icelandic
  • Default                                  : No
  • Forced                                   : No
  • Text #17
  • ID                                       : 20
  • Format                                   : PGS
  • Muxing mode                              : zlib
  • Codec ID                                 : S_HDMV/PGS
  • Codec ID/Info                            : Picture based subtitle format used on BDs/HD-DVDs
  • Duration                                 : 1 h 26 min
  • Bit rate                                 : 19.9 kb/s
  • Count of elements                        : 1620
  • Stream size                              : 12.3 MiB (0%)
  • Title                                    : Italian-PGS
  • Language                                 : Italian
  • Default                                  : No
  • Forced                                   : No
  • Text #18
  • ID                                       : 21
  • Format                                   : PGS
  • Muxing mode                              : zlib
  • Codec ID                                 : S_HDMV/PGS
  • Codec ID/Info                            : Picture based subtitle format used on BDs/HD-DVDs
  • Duration                                 : 1 h 19 min
  • Bit rate                                 : 17.8 kb/s
  • Count of elements                        : 1498
  • Stream size                              : 10.1 MiB (0%)
  • Title                                    : Japanese-PGS
  • Language                                 : Japanese
  • Default                                  : No
  • Forced                                   : No
  • Text #19
  • ID                                       : 22
  • Format                                   : PGS
  • Muxing mode                              : zlib
  • Codec ID                                 : S_HDMV/PGS
  • Codec ID/Info                            : Picture based subtitle format used on BDs/HD-DVDs
  • Duration                                 : 1 h 26 min
  • Bit rate                                 : 12.2 kb/s
  • Count of elements                        : 1476
  • Stream size                              : 7.56 MiB (0%)
  • Title                                    : Korean-PGS
  • Language                                 : Korean
  • Default                                  : No
  • Forced                                   : No
  • Text #20
  • ID                                       : 23
  • Format                                   : PGS
  • Muxing mode                              : zlib
  • Codec ID                                 : S_HDMV/PGS
  • Codec ID/Info                            : Picture based subtitle format used on BDs/HD-DVDs
  • Duration                                 : 1 h 26 min
  • Bit rate                                 : 20.5 kb/s
  • Count of elements                        : 1620
  • Stream size                              : 12.6 MiB (0%)
  • Title                                    : Hungarian-PGS
  • Language                                 : Hungarian
  • Default                                  : No
  • Forced                                   : No
  • Text #21
  • ID                                       : 24
  • Format                                   : PGS
  • Muxing mode                              : zlib
  • Codec ID                                 : S_HDMV/PGS
  • Codec ID/Info                            : Picture based subtitle format used on BDs/HD-DVDs
  • Duration                                 : 1 h 26 min
  • Bit rate                                 : 15.6 kb/s
  • Count of elements                        : 1498
  • Stream size                              : 9.67 MiB (0%)
  • Title                                    : Chinese-PGS
  • Language                                 : Chinese
  • Default                                  : No
  • Forced                                   : No
  • Text #22
  • ID                                       : 25
  • Format                                   : PGS
  • Muxing mode                              : zlib
  • Codec ID                                 : S_HDMV/PGS
  • Codec ID/Info                            : Picture based subtitle format used on BDs/HD-DVDs
  • Duration                                 : 1 h 26 min
  • Bit rate                                 : 17.6 kb/s
  • Count of elements                        : 1190
  • Stream size                              : 10.9 MiB (0%)
  • Title                                    : Dutch-PGS
  • Language                                 : Dutch
  • Default                                  : No
  • Forced                                   : No
  • Text #23
  • ID                                       : 26
  • Format                                   : PGS
  • Muxing mode                              : zlib
  • Codec ID                                 : S_HDMV/PGS
  • Codec ID/Info                            : Picture based subtitle format used on BDs/HD-DVDs
  • Duration                                 : 1 h 26 min
  • Bit rate                                 : 17.9 kb/s
  • Count of elements                        : 1464
  • Stream size                              : 11.1 MiB (0%)
  • Title                                    : Polish-PGS
  • Language                                 : Polish
  • Default                                  : No
  • Forced                                   : No
  • Text #24
  • ID                                       : 27
  • Format                                   : PGS
  • Muxing mode                              : zlib
  • Codec ID                                 : S_HDMV/PGS
  • Codec ID/Info                            : Picture based subtitle format used on BDs/HD-DVDs
  • Duration                                 : 1 h 19 min
  • Bit rate                                 : 19.5 kb/s
  • Count of elements                        : 1466
  • Stream size                              : 11.1 MiB (0%)
  • Title                                    : Portuguese-PGS
  • Language                                 : Portuguese
  • Default                                  : No
  • Forced                                   : No
  • Text #25
  • ID                                       : 28
  • Format                                   : PGS
  • Muxing mode                              : zlib
  • Codec ID                                 : S_HDMV/PGS
  • Codec ID/Info                            : Picture based subtitle format used on BDs/HD-DVDs
  • Duration                                 : 1 h 26 min
  • Bit rate                                 : 18.8 kb/s
  • Count of elements                        : 1406
  • Stream size                              : 11.6 MiB (0%)
  • Title                                    : Portuguese-PGS
  • Language                                 : Portuguese
  • Default                                  : No
  • Forced                                   : No
  • Text #26
  • ID                                       : 29
  • Format                                   : PGS
  • Muxing mode                              : zlib
  • Codec ID                                 : S_HDMV/PGS
  • Codec ID/Info                            : Picture based subtitle format used on BDs/HD-DVDs
  • Duration                                 : 1 h 26 min
  • Bit rate                                 : 19.2 kb/s
  • Count of elements                        : 1620
  • Stream size                              : 11.9 MiB (0%)
  • Title                                    : Russian-PGS
  • Language                                 : Russian
  • Default                                  : No
  • Forced                                   : No
  • Text #27
  • ID                                       : 30
  • Format                                   : PGS
  • Muxing mode                              : zlib
  • Codec ID                                 : S_HDMV/PGS
  • Codec ID/Info                            : Picture based subtitle format used on BDs/HD-DVDs
  • Duration                                 : 1 h 26 min
  • Bit rate                                 : 16.9 kb/s
  • Count of elements                        : 1470
  • Stream size                              : 10.4 MiB (0%)
  • Title                                    : Romanian-PGS
  • Language                                 : rom
  • Default                                  : No
  • Forced                                   : No
  • Text #28
  • ID                                       : 31
  • Format                                   : PGS
  • Muxing mode                              : zlib
  • Codec ID                                 : S_HDMV/PGS
  • Codec ID/Info                            : Picture based subtitle format used on BDs/HD-DVDs
  • Duration                                 : 1 h 26 min
  • Bit rate                                 : 16.9 kb/s
  • Count of elements                        : 1476
  • Stream size                              : 10.4 MiB (0%)
  • Title                                    : Slovak-PGS
  • Language                                 : Slovak
  • Default                                  : No
  • Forced                                   : No
  • Text #29
  • ID                                       : 32
  • Format                                   : PGS
  • Muxing mode                              : zlib
  • Codec ID                                 : S_HDMV/PGS
  • Codec ID/Info                            : Picture based subtitle format used on BDs/HD-DVDs
  • Duration                                 : 1 h 26 min
  • Bit rate                                 : 14.8 kb/s
  • Count of elements                        : 1476
  • Stream size                              : 9.14 MiB (0%)
  • Title                                    : Thai-PGS
  • Language                                 : Thai
  • Default                                  : No
  • Forced                                   : No
  • Text #30
  • ID                                       : 33
  • Format                                   : PGS
  • Muxing mode                              : zlib
  • Codec ID                                 : S_HDMV/PGS
  • Codec ID/Info                            : Picture based subtitle format used on BDs/HD-DVDs
  • Duration                                 : 1 h 26 min
  • Bit rate                                 : 19.0 kb/s
  • Count of elements                        : 1476
  • Stream size                              : 11.7 MiB (0%)
  • Title                                    : Turkish-PGS
  • Language                                 : Turkish
  • Default                                  : No
  • Forced                                   : No
  • Text #31
  • ID                                       : 34
  • Format                                   : PGS
  • Muxing mode                              : zlib
  • Codec ID                                 : S_HDMV/PGS
  • Codec ID/Info                            : Picture based subtitle format used on BDs/HD-DVDs
  • Duration                                 : 2 min 28 s
  • Bit rate                                 : 12.6 kb/s
  • Count of elements                        : 26
  • Stream size                              : 228 KiB (0%)
  • Title                                    : Japanese-PGS
  • Language                                 : Japanese
  • Default                                  : No
  • Forced                                   : No
  • Menu
  • 00:00:00.000                             : :Chapter 1
  • 00:08:57.828                             : :Chapter 2
  • 00:15:58.791                             : :Chapter 3
  • 00:24:08.113                             : :Chapter 4
  • 00:32:18.937                             : :Chapter 5
  • 00:40:13.869                             : :Chapter 6
  • 00:46:46.637                             : :Chapter 7
  • 00:52:23.098                             : :Chapter 8
  • 01:00:21.034                             : :Chapter 9
  • 01:05:06.652                             : :Chapter 10
  • 01:12:50.657                             : :Chapter 11
  • 01:19:02.863                             : :Chapter 12

复制代码

韩赛尔与格蕾特:女巫猎人/格林双侠:猎巫世纪 Hansel.and.Gretel.Witch.Hunters.2013.2160p.BluRay.x264.8bit.SDR.TrueHD.5.1-SWTYBLZ 23.63GB-2.png 韩赛尔与格蕾特:女巫猎人/格林双侠:猎巫世纪 Hansel.and.Gretel.Witch.Hunters.2013.2160p.BluRay.x264.8bit.SDR.TrueHD.5.1-SWTYBLZ 23.63GB-3.png 韩赛尔与格蕾特:女巫猎人/格林双侠:猎巫世纪 Hansel.and.Gretel.Witch.Hunters.2013.2160p.BluRay.x264.8bit.SDR.TrueHD.5.1-SWTYBLZ 23.63GB-4.png 韩赛尔与格蕾特:女巫猎人/格林双侠:猎巫世纪 Hansel.and.Gretel.Witch.Hunters.2013.2160p.BluRay.x264.8bit.SDR.TrueHD.5.1-SWTYBLZ 23.63GB-5.png 韩赛尔与格蕾特:女巫猎人/格林双侠:猎巫世纪 Hansel.and.Gretel.Witch.Hunters.2013.2160p.BluRay.x264.8bit.SDR.TrueHD.5.1-SWTYBLZ 23.63GB-6.png 韩赛尔与格蕾特:女巫猎人/格林双侠:猎巫世纪 Hansel.and.Gretel.Witch.Hunters.2013.2160p.BluRay.x264.8bit.SDR.TrueHD.5.1-SWTYBLZ 23.63GB-7.png 韩赛尔与格蕾特:女巫猎人/格林双侠:猎巫世纪 Hansel.and.Gretel.Witch.Hunters.2013.2160p.BluRay.x264.8bit.SDR.TrueHD.5.1-SWTYBLZ 23.63GB-8.png





Hansel.and.Gretel.Witch.Hunters.2013.2160p.BluRay.x264.8bit.SDR.TrueHD.5.1-SWTYBLZ.torrent (59.72 KB, 下载次数: 30)

特别声明:本站所有资源均由网上收集而来,版权归原影音公司所有,如果侵犯了你的权益,请通知我们,我们会及时删除侵权内容.

免费下载本站所有资源---点这里
迅雷 应版权方要求,文件无法下载的解决办法---点这里
回复

使用道具 举报

签到天数: 6 天

[LV.2]偶尔看看I

发表于 2018-10-11 19:25:49 | 显示全部楼层
一楼能捡到蓝光币吗?
免费下载本站所有资源---点这里
迅雷 应版权方要求,文件无法下载的解决办法---点这里
回复 支持 反对

使用道具 举报

签到天数: 56 天

[LV.5]常住居民I

发表于 2018-10-11 20:01:23 | 显示全部楼层
真是难得给力的资源啊 有空要下载来看看
免费下载本站所有资源---点这里
迅雷 应版权方要求,文件无法下载的解决办法---点这里
回复 支持 反对

使用道具 举报

签到天数: 27 天

[LV.4]偶尔看看III

发表于 2018-10-11 21:03:42 | 显示全部楼层
激动人心,无法言表!
[发帖际遇]: shexie 乐于助人,奖励 2 蓝光币. 幸运榜 / 衰神榜
免费下载本站所有资源---点这里
迅雷 应版权方要求,文件无法下载的解决办法---点这里
回复 支持 反对

使用道具 举报

签到天数: 45 天

[LV.5]常住居民I

发表于 2018-10-11 21:56:50 | 显示全部楼层
强烈支持楼主ing……
[发帖际遇]: 北风级 发帖时在路边捡到 2 蓝光币,偷偷放进了口袋. 幸运榜 / 衰神榜
免费下载本站所有资源---点这里
迅雷 应版权方要求,文件无法下载的解决办法---点这里
回复 支持 反对

使用道具 举报

签到天数: 130 天

[LV.7]常住居民III

发表于 7 天前 | 显示全部楼层
强烈支持楼主ing……
[发帖际遇]: 193,吴大哥 乐于助人,奖励 2 蓝光币. 幸运榜 / 衰神榜
免费下载本站所有资源---点这里
迅雷 应版权方要求,文件无法下载的解决办法---点这里
回复 支持 反对

使用道具 举报

签到天数: 77 天

[LV.6]常住居民II

发表于 7 天前 | 显示全部楼层
强烈支持楼主ing……
免费下载本站所有资源---点这里
迅雷 应版权方要求,文件无法下载的解决办法---点这里
回复 支持 反对

使用道具 举报

签到天数: 122 天

[LV.7]常住居民III

发表于 7 天前 | 显示全部楼层
真是难得给力的帖子啊。
免费下载本站所有资源---点这里
迅雷 应版权方要求,文件无法下载的解决办法---点这里
回复 支持 反对

使用道具 举报

签到天数: 3 天

[LV.2]偶尔看看I

发表于 7 天前 | 显示全部楼层
感恩无私的分享与奉献
免费下载本站所有资源---点这里
迅雷 应版权方要求,文件无法下载的解决办法---点这里
回复 支持 反对

使用道具 举报

签到天数: 21 天

[LV.4]偶尔看看III

发表于 7 天前 | 显示全部楼层
强烈支持楼主ing……
免费下载本站所有资源---点这里
迅雷 应版权方要求,文件无法下载的解决办法---点这里
回复 支持 反对

使用道具 举报

点击按钮快速添加回复内容: 支持 高兴 激动 给力 加油 淡定 生气 回帖 路过 感动 感恩
您需要登录后才可以回帖 登录 | 立即加入

本版积分规则

现在加入蓝光电影网,注册一个账号

QQ| 手机版|小黑屋| 蓝光电影网 |

Copyright © 2001-2015 Comsenz Inc.  Template by 蓝光电影论坛 All Rights Reserved.

Powered by 高清电影网 X3.2
特别声明:本站所有资源均由网上收集而来,版权归原影音公司所有,如果侵犯了你的权益,请通知我们,我们会及时删除侵权内容.

快速回复 返回顶部 返回列表