找回密码

蓝光电影网

查看: 517|回复: 21

禁闭岛/不赦岛 Shutter.Island.2010.2160p.BluRay.x265.10bit.SDR.DTS-HD.MA.5.1-SWTYBLZ 38.82GB

[复制链接]

 成长值: 17290

签到天数: 401 天

[LV.9]以坛为家II

发表于 2018-10-8 00:12:28 | 显示全部楼层 |阅读模式

马上注册,获取最新影视资讯,享用更多功能,让你轻松玩转蓝光电影网。

您需要 登录 才可以下载或查看,没有帐号?立即加入

x

禁闭岛/不赦岛 Shutter.Island.2010.2160p.BluRay.x265.10bit.SDR.DTS-HD.MA.5.1-SWTYBLZ 38.82GB-1.jpg
◎译  名 禁闭岛/不赦岛(港)/隔离岛(台)/孤岛疑云/荒岛追凶/孤岛恐慌/关门岛/孤岛/艾什克里夫
◎片  名 Shutter Island
◎年  代 2010
◎产  地 美国
◎类  别 剧情/悬疑/惊悚
◎语  言 英语/德语
◎上映日期 2010-02-13(柏林电影节)/2010-02-19(美国)
◎IMDb评分  8.1/10 from 956,907 users
◎IMDb链接  http://www.imdb.com/title/tt1130884/
◎豆瓣评分 8.7/10 from 427,790 users
◎豆瓣链接 https://movie.douban.com/subject/2334904/
◎片  长 138 分钟
◎导  演 马丁·斯科塞斯 Martin Scorsese
◎主  演 莱昂纳多·迪卡普里奥 Leonardo DiCaprio
      马克·鲁弗洛 Mark Ruffalo
      本·金斯利 Ben Kingsley
      马克斯·冯·叙多 Max von Sydow
      米歇尔·威廉姆斯 Michelle Williams
      艾米莉·莫迪默 Emily Mortimer
      派翠西娅·克拉克森 Patricia Clarkson
      杰基·厄尔·哈利 Jackie Earle Haley
      泰德·拉文 Ted Levine
      约翰·卡洛·林奇 John Carroll Lynch
      伊莱亚斯·科泰斯 Elias Koteas
      罗宾·巴特利特 Robin Bartlett
      克里斯托弗·邓汉 Christopher Denham
      约瑟夫·斯科拉 Joseph Sikora

◎简  介

  本片根据美国小说家丹尼斯·勒翰(Dennis Lehane)的同名小说改编。 1954年,联邦警官泰迪(莱昂纳多·迪卡普里奥 Leonardo DiCaprio 饰)和搭档查克(马克·鲁弗洛 Mark Ruffalo 饰)乘船来到波士顿附近的禁闭岛精神病犯监狱调查一桩离奇失踪案。手刃亲生骨肉的女犯蕾切尔(艾米莉·莫迪默 Emily Mortimer 饰)从戒备森严的牢室神秘逃脱,藏匿于孤岛深处。泰迪怀疑监狱的主治精神病医师约翰·考利(本·金斯利 Ben Kingsley 饰)有意隐瞒内情,并向查克透露他上岛的真实目的其实是寻找当年纵火烧死他妻子德洛丽丝(米歇尔·威廉姆斯 Michelle Williams 饰)的管理员,并揭露美国政府利用精神病犯人进行人体科学实验的罪行。但随着调查的逐渐深入,真相却变得越来越扑朔迷离……

◎获奖情况

  第15届圣地亚哥影评人协会奖  (2010)
  最佳改编剧本(提名) 莱塔·卡罗格里迪斯
  最佳摄影(提名) 罗伯特·理查森
  最佳艺术指导 丹提·费瑞提

  第23届芝加哥影评人协会奖  (2010)
  最佳摄影(提名) 罗伯特·理查森

  第10届凤凰城影评人协会奖  (2010)
  最佳剪辑(提名) 塞尔玛·斯昆梅克
  十佳影片

  第12届美国青少年选择奖  (2010)
  最佳恐怖/惊悚电影(提名)
  最佳恐怖/惊悚电影男演员 莱昂纳多·迪卡普里奥
  最佳恐怖/惊悚电影女演员(提名) 米歇尔·威廉姆斯

  第1届豆瓣电影鑫像奖  (2011)
  鑫豆单元 最佳男演员(外语) 莱昂纳多·迪卡普里奥
  • Video
  • ID                                       : 1
  • Format                                   : HEVC
  • Format/Info                              : High Efficiency Video Coding
  • Format profile                           : Main [email protected]@High
  • Codec ID                                 : V_MPEGH/ISO/HEVC
  • Duration                                 : 2 h 18 min
  • Bit rate                                 : 34.5 Mb/s
  • Width                                    : 3 840 pixels
  • Height                                   : 1 634 pixels
  • Display aspect ratio                     : 2.35:1
  • Frame rate mode                          : Constant
  • Frame rate                               : 23.976 (24000/1001) FPS
  • Color space                              : YUV
  • Chroma subsampling                       : 4:2:0
  • Bit depth                                : 10 bits
  • Bits/(Pixel*Frame)                       : 0.229
  • Stream size                              : 33.3 GiB (86%)
  • Title                                    : Shutter.Island.2010.2160p.BluRay.x265.10bit.SDR.DTS-HD.MA.5.1-SWTYBLZ
  • Writing library                          : x265 2.8+54-79c76e42cb28:[Windows][GCC 7.3.1][64 bit] 10bit
  • Encoding settings                        : cpuid=1111039 / frame-threads=16 / numa-pools=24,24,24,24 / wpp / no-pmode / no-pme / no-psnr / no-ssim / log-level=2 / input-csp=1 / input-res=3840x1634 / interlace=0 / total-frames=0 / level-idc=51 / high-tier=1 / uhd-bd=0 / ref=3 / no-allow-non-conformance / repeat-headers / annexb / aud / hrd / info / hash=0 / no-temporal-layers / no-open-gop / min-keyint=1 / keyint=24 / gop-lookahead=0 / bframes=4 / b-adapt=2 / b-pyramid / bframe-bias=0 / rc-lookahead=25 / lookahead-slices=4 / scenecut=40 / radl=0 / no-intra-refresh / ctu=64 / min-cu-size=8 / no-rect / no-amp / max-tu-size=32 / tu-inter-depth=1 / tu-intra-depth=1 / limit-tu=0 / rdoq-level=0 / dynamic-rd=0.00 / no-ssim-rd / signhide / no-tskip / nr-intra=0 / nr-inter=0 / no-constrained-intra / strong-intra-smoothing / max-merge=2 / limit-refs=3 / no-limit-modes / me=1 / subme=2 / merange=57 / temporal-mvp / weightp / no-weightb / no-analyze-src-pics / deblock=0:0 / no-sao / no-sao-non-deblock / rd=3 / no-early-skip / rskip / no-fast-intra / no-tskip-fast / no-cu-lossless / no-b-intra / no-splitrd-skip / rdpenalty=0 / psy-rd=2.00 / psy-rdoq=0.00 / no-rd-refine / no-lossless / cbqpoffs=0 / crqpoffs=0 / rc=crf / crf=18.0 / qcomp=0.60 / qpstep=4 / stats-write=0 / stats-read=0 / vbv-maxrate=160000 / vbv-bufsize=160000 / vbv-init=0.9 / crf-max=0.0 / crf-min=0.0 / ipratio=1.40 / pbratio=1.30 / aq-mode=1 / aq-strength=1.00 / cutree / zone-count=0 / no-strict-cbr / qg-size=32 / no-rc-grain / qpmax=69 / qpmin=0 / no-const-vbv / sar=1 / overscan=0 / videoformat=5 / range=0 / colorprim=2 / transfer=2 / colormatrix=2 / chromaloc=0 / display-window=0 / max-cll=0,0 / min-luma=0 / max-luma=1023 / log2-max-poc-lsb=8 / vui-timing-info / vui-hrd-info / slices=1 / opt-qp-pps / opt-ref-list-length-pps / no-multi-pass-opt-rps / scenecut-bias=0.05 / no-opt-cu-delta-qp / no-aq-motion / no-hdr / no-hdr-opt / no-dhdr10-opt / no-idr-recovery-sei / analysis-reuse-level=5 / scale-factor=0 / refine-intra=0 / refine-inter=0 / refine-mv=0 / no-limit-sao / ctu-info=0 / no-lowpass-dct / refine-mv-type=0 / copy-pic=1 / max-ausize-factor=1.0 / no-dynamic-refine / no-single-sei
  • Default                                  : Yes
  • Forced                                   : No
  • Audio #1
  • ID                                       : 2
  • Format                                   : DTS XLL
  • Format/Info                              : Digital Theater Systems
  • Commercial name                          : DTS-HD Master Audio
  • Codec ID                                 : A_DTS
  • Duration                                 : 2 h 18 min
  • Bit rate mode                            : Variable
  • Bit rate                                 : 4 725 kb/s
  • Channel(s)                               : 6 channels
  • Channel layout                           : C L R Ls Rs LFE
  • Sampling rate                            : 48.0 kHz
  • Frame rate                               : 93.750 FPS (512 SPF)
  • Bit depth                                : 24 bits
  • Compression mode                         : Lossless
  • Stream size                              : 4.56 GiB (12%)
  • Title                                    : Shutter.Island.2010.2160p.BluRay.x265.10bit.SDR.DTS-HD.MA.5.1-SWTYBLZ
  • Language                                 : English
  • Default                                  : Yes
  • Forced                                   : No
  • Audio #2
  • ID                                       : 3
  • Format                                   : AC-3
  • Format/Info                              : Audio Coding 3
  • Commercial name                          : Dolby Digital
  • Codec ID                                 : A_AC3
  • Duration                                 : 2 h 18 min
  • Bit rate mode                            : Constant
  • Bit rate                                 : 640 kb/s
  • Channel(s)                               : 6 channels
  • Channel layout                           : L R C LFE Ls Rs
  • Sampling rate                            : 48.0 kHz
  • Frame rate                               : 31.250 FPS (1536 SPF)
  • Bit depth                                : 16 bits
  • Compression mode                         : Lossy
  • Stream size                              : 632 MiB (2%)
  • Title                                    : Shutter.Island.2010.2160p.BluRay.x265.10bit.SDR.DTS-HD.MA.5.1-SWTYBLZ
  • Language                                 : English
  • Service kind                             : Complete Main
  • Default                                  : No
  • Forced                                   : No
  • Text #1
  • ID                                       : 4
  • Format                                   : UTF-8
  • Codec ID                                 : S_TEXT/UTF8
  • Codec ID/Info                            : UTF-8 Plain Text
  • Duration                                 : 2 h 8 min
  • Bit rate                                 : 58 b/s
  • Count of elements                        : 1557
  • Stream size                              : 55.3 KiB (0%)
  • Title                                    : English-SRT
  • Language                                 : English
  • Default                                  : Yes
  • Forced                                   : No
  • Text #2
  • ID                                       : 5
  • Format                                   : UTF-8
  • Codec ID                                 : S_TEXT/UTF8
  • Codec ID/Info                            : UTF-8 Plain Text
  • Duration                                 : 2 h 8 min
  • Bit rate                                 : 59 b/s
  • Count of elements                        : 1572
  • Stream size                              : 55.6 KiB (0%)
  • Title                                    : English-SDH-SRT
  • Language                                 : English
  • Default                                  : No
  • Forced                                   : No
  • Text #3
  • ID                                       : 6
  • Format                                   : PGS
  • Muxing mode                              : zlib
  • Codec ID                                 : S_HDMV/PGS
  • Codec ID/Info                            : Picture based subtitle format used on BDs/HD-DVDs
  • Duration                                 : 2 h 8 min
  • Bit rate                                 : 35.6 kb/s
  • Count of elements                        : 3114
  • Stream size                              : 32.7 MiB (0%)
  • Title                                    : English-PGS
  • Language                                 : English
  • Default                                  : No
  • Forced                                   : No
  • Text #4
  • ID                                       : 7
  • Format                                   : PGS
  • Muxing mode                              : zlib
  • Codec ID                                 : S_HDMV/PGS
  • Codec ID/Info                            : Picture based subtitle format used on BDs/HD-DVDs
  • Duration                                 : 2 h 8 min
  • Bit rate                                 : 37.9 kb/s
  • Count of elements                        : 3322
  • Stream size                              : 34.8 MiB (0%)
  • Title                                    : English-SDH-PGS
  • Language                                 : English
  • Default                                  : No
  • Forced                                   : No
  • Text #5
  • ID                                       : 8
  • Format                                   : PGS
  • Muxing mode                              : zlib
  • Codec ID                                 : S_HDMV/PGS
  • Codec ID/Info                            : Picture based subtitle format used on BDs/HD-DVDs
  • Duration                                 : 2 h 17 min
  • Bit rate                                 : 14.3 kb/s
  • Count of elements                        : 3122
  • Stream size                              : 14.0 MiB (0%)
  • Title                                    : Arabic-PGS
  • Language                                 : Arabic
  • Default                                  : No
  • Forced                                   : No
  • Text #6
  • ID                                       : 9
  • Format                                   : PGS
  • Muxing mode                              : zlib
  • Codec ID                                 : S_HDMV/PGS
  • Codec ID/Info                            : Picture based subtitle format used on BDs/HD-DVDs
  • Duration                                 : 2 h 17 min
  • Bit rate                                 : 36.5 kb/s
  • Count of elements                        : 3130
  • Stream size                              : 35.8 MiB (0%)
  • Title                                    : Malay-PGS
  • Language                                 : Malay
  • Default                                  : No
  • Forced                                   : No
  • Text #7
  • ID                                       : 10
  • Format                                   : PGS
  • Muxing mode                              : zlib
  • Codec ID                                 : S_HDMV/PGS
  • Codec ID/Info                            : Picture based subtitle format used on BDs/HD-DVDs
  • Duration                                 : 2 h 17 min
  • Bit rate                                 : 25.1 kb/s
  • Count of elements                        : 3134
  • Stream size                              : 24.7 MiB (0%)
  • Title                                    : Chinese-PGS
  • Language                                 : Chinese
  • Default                                  : No
  • Forced                                   : No
  • Text #8
  • ID                                       : 11
  • Format                                   : PGS
  • Muxing mode                              : zlib
  • Codec ID                                 : S_HDMV/PGS
  • Codec ID/Info                            : Picture based subtitle format used on BDs/HD-DVDs
  • Duration                                 : 2 h 17 min
  • Bit rate                                 : 25.6 kb/s
  • Count of elements                        : 2966
  • Stream size                              : 25.2 MiB (0%)
  • Title                                    : Czech-PGS
  • Language                                 : Czech
  • Default                                  : No
  • Forced                                   : No
  • Text #9
  • ID                                       : 12
  • Format                                   : PGS
  • Muxing mode                              : zlib
  • Codec ID                                 : S_HDMV/PGS
  • Codec ID/Info                            : Picture based subtitle format used on BDs/HD-DVDs
  • Duration                                 : 2 h 16 min
  • Bit rate                                 : 28.3 kb/s
  • Count of elements                        : 2436
  • Stream size                              : 27.7 MiB (0%)
  • Title                                    : Danish-PGS
  • Language                                 : Danish
  • Default                                  : No
  • Forced                                   : No
  • Text #10
  • ID                                       : 13
  • Format                                   : PGS
  • Muxing mode                              : zlib
  • Codec ID                                 : S_HDMV/PGS
  • Codec ID/Info                            : Picture based subtitle format used on BDs/HD-DVDs
  • Duration                                 : 2 h 17 min
  • Bit rate                                 : 32.7 kb/s
  • Count of elements                        : 3100
  • Stream size                              : 32.2 MiB (0%)
  • Title                                    : Greek-PGS
  • Language                                 : Greek
  • Default                                  : No
  • Forced                                   : No
  • Text #11
  • ID                                       : 14
  • Format                                   : PGS
  • Muxing mode                              : zlib
  • Codec ID                                 : S_HDMV/PGS
  • Codec ID/Info                            : Picture based subtitle format used on BDs/HD-DVDs
  • Duration                                 : 2 h 9 min
  • Bit rate                                 : 29.4 kb/s
  • Count of elements                        : 2896
  • Stream size                              : 27.2 MiB (0%)
  • Title                                    : Spanish-PGS
  • Language                                 : Spanish
  • Default                                  : No
  • Forced                                   : No
  • Text #12
  • ID                                       : 15
  • Format                                   : PGS
  • Muxing mode                              : zlib
  • Codec ID                                 : S_HDMV/PGS
  • Codec ID/Info                            : Picture based subtitle format used on BDs/HD-DVDs
  • Duration                                 : 2 h 17 min
  • Bit rate                                 : 26.2 kb/s
  • Count of elements                        : 3110
  • Stream size                              : 25.7 MiB (0%)
  • Title                                    : French-PGS
  • Language                                 : French
  • Default                                  : No
  • Forced                                   : No
  • Text #13
  • ID                                       : 16
  • Format                                   : PGS
  • Muxing mode                              : zlib
  • Codec ID                                 : S_HDMV/PGS
  • Codec ID/Info                            : Picture based subtitle format used on BDs/HD-DVDs
  • Duration                                 : 2 h 17 min
  • Bit rate                                 : 66.6 kb/s
  • Count of elements                        : 4868
  • Stream size                              : 65.4 MiB (0%)
  • Title                                    : Hindi-PGS
  • Language                                 : Hindi
  • Default                                  : No
  • Forced                                   : No
  • Text #14
  • ID                                       : 17
  • Format                                   : PGS
  • Muxing mode                              : zlib
  • Codec ID                                 : S_HDMV/PGS
  • Codec ID/Info                            : Picture based subtitle format used on BDs/HD-DVDs
  • Duration                                 : 2 h 17 min
  • Bit rate                                 : 33.0 kb/s
  • Count of elements                        : 3130
  • Stream size                              : 32.4 MiB (0%)
  • Title                                    : Icelandic-PGS
  • Language                                 : Icelandic
  • Default                                  : No
  • Forced                                   : No
  • Text #15
  • ID                                       : 18
  • Format                                   : PGS
  • Muxing mode                              : zlib
  • Codec ID                                 : S_HDMV/PGS
  • Codec ID/Info                            : Picture based subtitle format used on BDs/HD-DVDs
  • Duration                                 : 2 h 8 min
  • Bit rate                                 : 24.4 kb/s
  • Count of elements                        : 2926
  • Stream size                              : 22.5 MiB (0%)
  • Title                                    : Japanese-PGS
  • Language                                 : Japanese
  • Default                                  : No
  • Forced                                   : No
  • Text #16
  • ID                                       : 19
  • Format                                   : PGS
  • Muxing mode                              : zlib
  • Codec ID                                 : S_HDMV/PGS
  • Codec ID/Info                            : Picture based subtitle format used on BDs/HD-DVDs
  • Duration                                 : 2 h 17 min
  • Bit rate                                 : 16.7 kb/s
  • Count of elements                        : 2824
  • Stream size                              : 16.5 MiB (0%)
  • Title                                    : Korean-PGS
  • Language                                 : Korean
  • Default                                  : No
  • Forced                                   : No
  • Text #17
  • ID                                       : 20
  • Format                                   : PGS
  • Muxing mode                              : zlib
  • Codec ID                                 : S_HDMV/PGS
  • Codec ID/Info                            : Picture based subtitle format used on BDs/HD-DVDs
  • Duration                                 : 2 h 17 min
  • Bit rate                                 : 31.2 kb/s
  • Count of elements                        : 3130
  • Stream size                              : 30.7 MiB (0%)
  • Title                                    : Hungarian-PGS
  • Language                                 : Hungarian
  • Default                                  : No
  • Forced                                   : No
  • Text #18
  • ID                                       : 21
  • Format                                   : PGS
  • Muxing mode                              : zlib
  • Codec ID                                 : S_HDMV/PGS
  • Codec ID/Info                            : Picture based subtitle format used on BDs/HD-DVDs
  • Duration                                 : 2 h 17 min
  • Bit rate                                 : 22.6 kb/s
  • Count of elements                        : 3252
  • Stream size                              : 22.2 MiB (0%)
  • Title                                    : Chinese-PGS
  • Language                                 : Chinese
  • Default                                  : No
  • Forced                                   : No
  • Text #19
  • ID                                       : 22
  • Format                                   : PGS
  • Muxing mode                              : zlib
  • Codec ID                                 : S_HDMV/PGS
  • Codec ID/Info                            : Picture based subtitle format used on BDs/HD-DVDs
  • Duration                                 : 2 h 17 min
  • Bit rate                                 : 23.1 kb/s
  • Count of elements                        : 2600
  • Stream size                              : 22.7 MiB (0%)
  • Title                                    : Dutch-PGS
  • Language                                 : Dutch
  • Default                                  : No
  • Forced                                   : No
  • Text #20
  • ID                                       : 23
  • Format                                   : PGS
  • Muxing mode                              : zlib
  • Codec ID                                 : S_HDMV/PGS
  • Codec ID/Info                            : Picture based subtitle format used on BDs/HD-DVDs
  • Duration                                 : 2 h 16 min
  • Bit rate                                 : 24.2 kb/s
  • Count of elements                        : 2792
  • Stream size                              : 23.7 MiB (0%)
  • Title                                    : Norwegian-PGS
  • Language                                 : Norwegian
  • Default                                  : No
  • Forced                                   : No
  • Text #21
  • ID                                       : 24
  • Format                                   : PGS
  • Muxing mode                              : zlib
  • Codec ID                                 : S_HDMV/PGS
  • Codec ID/Info                            : Picture based subtitle format used on BDs/HD-DVDs
  • Duration                                 : 2 h 17 min
  • Bit rate                                 : 30.2 kb/s
  • Count of elements                        : 3132
  • Stream size                              : 29.7 MiB (0%)
  • Title                                    : Polish-PGS
  • Language                                 : Polish
  • Default                                  : No
  • Forced                                   : No
  • Text #22
  • ID                                       : 25
  • Format                                   : PGS
  • Muxing mode                              : zlib
  • Codec ID                                 : S_HDMV/PGS
  • Codec ID/Info                            : Picture based subtitle format used on BDs/HD-DVDs
  • Duration                                 : 2 h 9 min
  • Bit rate                                 : 29.4 kb/s
  • Count of elements                        : 2892
  • Stream size                              : 27.2 MiB (0%)
  • Title                                    : Portuguese-PGS
  • Language                                 : Portuguese
  • Default                                  : No
  • Forced                                   : No
  • Text #23
  • ID                                       : 26
  • Format                                   : PGS
  • Muxing mode                              : zlib
  • Codec ID                                 : S_HDMV/PGS
  • Codec ID/Info                            : Picture based subtitle format used on BDs/HD-DVDs
  • Duration                                 : 2 h 17 min
  • Bit rate                                 : 30.3 kb/s
  • Count of elements                        : 2996
  • Stream size                              : 29.8 MiB (0%)
  • Title                                    : Portuguese-PGS
  • Language                                 : Portuguese
  • Default                                  : No
  • Forced                                   : No
  • Text #24
  • ID                                       : 27
  • Format                                   : PGS
  • Muxing mode                              : zlib
  • Codec ID                                 : S_HDMV/PGS
  • Codec ID/Info                            : Picture based subtitle format used on BDs/HD-DVDs
  • Duration                                 : 2 h 17 min
  • Bit rate                                 : 26.1 kb/s
  • Count of elements                        : 2500
  • Stream size                              : 25.6 MiB (0%)
  • Title                                    : Romany-PGS
  • Language                                 : rom
  • Default                                  : No
  • Forced                                   : No
  • Text #25
  • ID                                       : 28
  • Format                                   : PGS
  • Muxing mode                              : zlib
  • Codec ID                                 : S_HDMV/PGS
  • Codec ID/Info                            : Picture based subtitle format used on BDs/HD-DVDs
  • Duration                                 : 2 h 16 min
  • Bit rate                                 : 31.7 kb/s
  • Count of elements                        : 3132
  • Stream size                              : 31.1 MiB (0%)
  • Title                                    : Slovak-PGS
  • Language                                 : Slovak
  • Default                                  : No
  • Forced                                   : No
  • Text #26
  • ID                                       : 29
  • Format                                   : PGS
  • Muxing mode                              : zlib
  • Codec ID                                 : S_HDMV/PGS
  • Codec ID/Info                            : Picture based subtitle format used on BDs/HD-DVDs
  • Duration                                 : 2 h 16 min
  • Bit rate                                 : 25.8 kb/s
  • Count of elements                        : 2758
  • Stream size                              : 25.2 MiB (0%)
  • Title                                    : Finnish-PGS
  • Language                                 : Finnish
  • Default                                  : No
  • Forced                                   : No
  • Text #27
  • ID                                       : 30
  • Format                                   : PGS
  • Muxing mode                              : zlib
  • Codec ID                                 : S_HDMV/PGS
  • Codec ID/Info                            : Picture based subtitle format used on BDs/HD-DVDs
  • Duration                                 : 2 h 16 min
  • Bit rate                                 : 31.6 kb/s
  • Count of elements                        : 3128
  • Stream size                              : 31.0 MiB (0%)
  • Title                                    : Swedish-PGS
  • Language                                 : Swedish
  • Default                                  : No
  • Forced                                   : No
  • Text #28
  • ID                                       : 31
  • Format                                   : PGS
  • Muxing mode                              : zlib
  • Codec ID                                 : S_HDMV/PGS
  • Codec ID/Info                            : Picture based subtitle format used on BDs/HD-DVDs
  • Duration                                 : 2 h 17 min
  • Bit rate                                 : 26.1 kb/s
  • Count of elements                        : 3134
  • Stream size                              : 25.7 MiB (0%)
  • Title                                    : Thai-PGS
  • Language                                 : Thai
  • Default                                  : No
  • Forced                                   : No
  • Text #29
  • ID                                       : 32
  • Format                                   : PGS
  • Muxing mode                              : zlib
  • Codec ID                                 : S_HDMV/PGS
  • Codec ID/Info                            : Picture based subtitle format used on BDs/HD-DVDs
  • Duration                                 : 2 h 17 min
  • Bit rate                                 : 32.4 kb/s
  • Count of elements                        : 3130
  • Stream size                              : 31.8 MiB (0%)
  • Title                                    : Turkish-PGS
  • Language                                 : Turkish
  • Default                                  : No
  • Forced                                   : No
  • Menu
  • 00:00:00.000                             : :Chapter 1
  • 00:06:33.142                             : :Chapter 2
  • 00:13:07.787                             : :Chapter 3
  • 00:20:20.928                             : :Chapter 4
  • 00:26:35.635                             : :Chapter 5
  • 00:34:54.801                             : :Chapter 6
  • 00:41:23.522                             : :Chapter 7
  • 00:48:29.573                             : :Chapter 8
  • 00:55:17.897                             : :Chapter 9
  • 01:04:02.672                             : :Chapter 10
  • 01:10:05.409                             : :Chapter 11
  • 01:16:54.401                             : :Chapter 12
  • 01:23:05.730                             : :Chapter 13
  • 01:31:37.742                             : :Chapter 14
  • 01:37:29.718                             : :Chapter 15
  • 01:45:39.082                             : :Chapter 16
  • 01:52:29.784                             : :Chapter 17
  • 01:57:39.969                             : :Chapter 18
  • 02:03:50.923                             : :Chapter 19
  • 02:10:30.989                             : :Chapter 20

复制代码

禁闭岛/不赦岛 Shutter.Island.2010.2160p.BluRay.x265.10bit.SDR.DTS-HD.MA.5.1-SWTYBLZ 38.82GB-2.png 禁闭岛/不赦岛 Shutter.Island.2010.2160p.BluRay.x265.10bit.SDR.DTS-HD.MA.5.1-SWTYBLZ 38.82GB-3.png 禁闭岛/不赦岛 Shutter.Island.2010.2160p.BluRay.x265.10bit.SDR.DTS-HD.MA.5.1-SWTYBLZ 38.82GB-4.png 禁闭岛/不赦岛 Shutter.Island.2010.2160p.BluRay.x265.10bit.SDR.DTS-HD.MA.5.1-SWTYBLZ 38.82GB-5.png 禁闭岛/不赦岛 Shutter.Island.2010.2160p.BluRay.x265.10bit.SDR.DTS-HD.MA.5.1-SWTYBLZ 38.82GB-6.png 禁闭岛/不赦岛 Shutter.Island.2010.2160p.BluRay.x265.10bit.SDR.DTS-HD.MA.5.1-SWTYBLZ 38.82GB-7.png 禁闭岛/不赦岛 Shutter.Island.2010.2160p.BluRay.x265.10bit.SDR.DTS-HD.MA.5.1-SWTYBLZ 38.82GB-8.png





Shutter.Island.2010.2160p.BluRay.x265.10bit.SDR.DTS-HD.MA.5.1-SWTYBLZ.torrent (97.69 KB, 下载次数: 34)

特别声明:本站所有资源均由网上收集而来,版权归原影音公司所有,如果侵犯了你的权益,请通知我们,我们会及时删除侵权内容.

免费下载本站所有资源---点这里
迅雷 应版权方要求,文件无法下载的解决办法---点这里
回复

使用道具 举报

签到天数: 56 天

[LV.5]常住居民I

发表于 2018-10-8 07:59:27 | 显示全部楼层
非常经典好看的电影 谢谢楼主分享
[发帖际遇]: 一个袋子砸在了 btfans 头上,btfans 赚了 1 蓝光币. 幸运榜 / 衰神榜
免费下载本站所有资源---点这里
迅雷 应版权方要求,文件无法下载的解决办法---点这里
回复 支持 反对

使用道具 举报

签到天数: 31 天

[LV.5]常住居民I

发表于 2018-10-8 08:53:19 | 显示全部楼层
无回帖,不高清,这才是人道。
免费下载本站所有资源---点这里
迅雷 应版权方要求,文件无法下载的解决办法---点这里
回复 支持 反对

使用道具 举报

签到天数: 122 天

[LV.7]常住居民III

发表于 2018-10-8 11:05:54 | 显示全部楼层
淡定,淡定,淡定……
免费下载本站所有资源---点这里
迅雷 应版权方要求,文件无法下载的解决办法---点这里
回复 支持 反对

使用道具 举报

签到天数: 142 天

[LV.7]常住居民III

发表于 2018-10-8 11:17:13 | 显示全部楼层
好片子,感谢分享!
免费下载本站所有资源---点这里
迅雷 应版权方要求,文件无法下载的解决办法---点这里
回复 支持 反对

使用道具 举报

签到天数: 18 天

[LV.4]偶尔看看III

发表于 2018-10-8 15:54:50 | 显示全部楼层
好片子,感谢分享!
免费下载本站所有资源---点这里
迅雷 应版权方要求,文件无法下载的解决办法---点这里
回复 支持 反对

使用道具 举报

签到天数: 8 天

[LV.3]偶尔看看II

发表于 2018-10-8 21:49:08 | 显示全部楼层
btfans 发表于 2018-10-8 07:59
非常经典好看的电影 谢谢楼主分享

强烈支持楼主ing……
免费下载本站所有资源---点这里
迅雷 应版权方要求,文件无法下载的解决办法---点这里
回复 支持 反对

使用道具 举报

 成长值: 385

签到天数: 44 天

[LV.5]常住居民I

发表于 2018-10-9 02:02:10 | 显示全部楼层
经典洗版,必须收藏

[发帖际遇]: codemar 发帖时在路边捡到 2 蓝光币,偷偷放进了口袋. 幸运榜 / 衰神榜
免费下载本站所有资源---点这里
迅雷 应版权方要求,文件无法下载的解决办法---点这里
回复 支持 反对

使用道具 举报

签到天数: 2 天

[LV.1]初来乍到

发表于 2018-10-9 08:02:30 | 显示全部楼层
激动人心,无法言表!
免费下载本站所有资源---点这里
迅雷 应版权方要求,文件无法下载的解决办法---点这里
回复 支持 反对

使用道具 举报

签到天数: 122 天

[LV.7]常住居民III

发表于 2018-10-9 11:16:21 | 显示全部楼层
太生气了,无法HOLD啦 >_<......
免费下载本站所有资源---点这里
迅雷 应版权方要求,文件无法下载的解决办法---点这里
回复 支持 反对

使用道具 举报

点击按钮快速添加回复内容: 支持 高兴 激动 给力 加油 淡定 生气 回帖 路过 感动 感恩
您需要登录后才可以回帖 登录 | 立即加入

本版积分规则

现在加入蓝光电影网,注册一个账号

QQ| 手机版|小黑屋| 蓝光电影网 |

Copyright © 2001-2015 Comsenz Inc.  Template by 蓝光电影论坛 All Rights Reserved.

Powered by 高清电影网 X3.2
特别声明:本站所有资源均由网上收集而来,版权归原影音公司所有,如果侵犯了你的权益,请通知我们,我们会及时删除侵权内容.

快速回复 返回顶部 返回列表