找回密码

蓝光电影网

查看: 694|回复: 41

精灵旅社3:疯狂假期/鬼灵精怪大酒店3:怪兽旅行团 Hotel.Transylvania.3.Summer.Vacation.2018.2160p.UHD.BluRay.X265.10bit.HDR.TrueHD.7.1.Atmos-TERMiNAL 10.31GB

[复制链接]

 成长值: 17290

签到天数: 401 天

[LV.9]以坛为家II

发表于 2018-10-8 00:11:45 | 显示全部楼层 |阅读模式

马上注册,获取最新影视资讯,享用更多功能,让你轻松玩转蓝光电影网。

您需要 登录 才可以下载或查看,没有帐号?立即加入

x

精灵旅社3:疯狂假期/鬼灵精怪大酒店3:怪兽旅行团 Hotel.Transylvania.3.Summer.Vacation.2018.2160p.UHD.BluRay.X265.10bit.HDR.TrueHD.7.1.Atmos-TERMiNAL 10.31GB-1.jpg
◎译  名 精灵旅社3:疯狂假期/鬼灵精怪大酒店3:怪兽旅行团(港)/尖叫旅社3:怪兽假期(台)
◎片  名 Hotel Transylvania 3: Summer Vacation
◎年  代 2018
◎产  地 美国
◎类  别 喜剧/动画/奇幻
◎语  言 英语
◎上映日期 2018-07-13(美国)/2018-08-17(中国大陆)
◎IMDb评分  6.3/10 from 19,270 users
◎IMDb链接  http://www.imdb.com/title/tt5220122/
◎豆瓣评分 6.8/10 from 37,359 users
◎豆瓣链接 https://movie.douban.com/subject/26630714/
◎片  长 98分钟
◎导  演 格恩迪·塔塔科夫斯基 Genndy Tartakovsky
◎主  演 亚当·桑德勒 Adam Sandler
      凯瑟琳·哈恩 Kathryn Hahn
      史蒂夫·布西密 Steve Buscemi
      赛琳娜·戈麦斯 Selena Gomez
      阿什·布林克夫 Asher Blinkoff
      梅尔·布鲁克斯 Mel Brooks
      科甘-迈克尔·凯 Keegan-Michael Key
      安迪·萨姆伯格 Andy Samberg
      法兰·德瑞雪 Fran Drescher
      大卫·斯佩德 David Spade
      凯文·詹姆斯 Kevin James
      莫莉·香侬 Molly Shannon
      格恩迪·塔塔科夫斯基 Genndy Tartakovsky
      乔·怀特 Joe Whyte
      克莉丝汀·泰根 Chrissy Teigen
      乔·乔纳斯 Joe Jonas
      吉姆·加菲根 Jim Gaffigan

◎简  介

  德古拉和家人朋友们踏上了一艘邮轮,宿命之敌“吸血鬼猎人”范海辛正在船上布置天罗地网等待“猎物”上门。除了爆笑搞怪,这次的冒险更加惊险刺激而纠结,因为在茫茫大海中,德古拉除了要面对重重家庭阻力、拯救朋友们的压力、也许还有......一个美女?
  • Video
  • ID                                       : 1
  • Format                                   : HEVC
  • Format/Info                              : High Efficiency Video Coding
  • Commercial name                          : HDR10
  • Format profile                           : Main [email protected]@High
  • Codec ID                                 : V_MPEGH/ISO/HEVC
  • Duration                                 : 1 h 37 min
  • Bit rate                                 : 11.0 Mb/s
  • Width                                    : 3 840 pixels
  • Height                                   : 2 080 pixels
  • Display aspect ratio                     : 1.85:1
  • Frame rate mode                          : Constant
  • Frame rate                               : 23.976 (24000/1001) FPS
  • Color space                              : YUV
  • Chroma subsampling                       : 4:2:0 (Type 2)
  • Bit depth                                : 10 bits
  • Bits/(Pixel*Frame)                       : 0.057
  • Stream size                              : 7.48 GiB (73%)
  • Writing library                          : x265 2.8+10-703eade86b53:[Windows][MSVC 1914][64 bit] 10bit
  • Encoding settings                        : cpuid=1111039 / frame-threads=4 / numa-pools=20 / wpp / no-pmode / no-pme / no-psnr / no-ssim / log-level=2 / input-csp=1 / input-res=3840x2080 / interlace=0 / total-frames=140099 / level-idc=51 / high-tier=1 / uhd-bd=0 / ref=4 / no-allow-non-conformance / repeat-headers / annexb / aud / hrd / info / hash=0 / no-temporal-layers / no-open-gop / min-keyint=1 / keyint=24 / gop-lookahead=0 / bframes=4 / b-adapt=2 / b-pyramid / bframe-bias=0 / rc-lookahead=25 / lookahead-slices=4 / scenecut=40 / radl=0 / no-intra-refresh / ctu=64 / min-cu-size=8 / rect / no-amp / max-tu-size=32 / tu-inter-depth=1 / tu-intra-depth=1 / limit-tu=0 / rdoq-level=2 / dynamic-rd=0.00 / no-ssim-rd / signhide / no-tskip / nr-intra=0 / nr-inter=0 / no-constrained-intra / no-strong-intra-smoothing / max-merge=3 / limit-refs=3 / limit-modes / me=3 / subme=3 / merange=57 / temporal-mvp / weightp / no-weightb / no-analyze-src-pics / deblock=-3:-3 / no-sao / no-sao-non-deblock / rd=4 / no-early-skip / rskip / no-fast-intra / no-tskip-fast / no-cu-lossless / no-b-intra / no-splitrd-skip / rdpenalty=0 / psy-rd=2.00 / psy-rdoq=1.00 / no-rd-refine / no-lossless / cbqpoffs=0 / crqpoffs=0 / rc=crf / crf=17.0 / qcomp=0.60 / qpstep=4 / stats-write=0 / stats-read=0 / vbv-maxrate=160000 / vbv-bufsize=160000 / vbv-init=0.9 / crf-max=0.0 / crf-min=0.0 / ipratio=1.40 / pbratio=1.30 / aq-mode=1 / aq-strength=1.00 / cutree / zone-count=0 / no-strict-cbr / qg-size=32 / no-rc-grain / qpmax=69 / qpmin=0 / no-const-vbv / sar=1 / overscan=0 / videoformat=5 / range=0 / colorprim=9 / transfer=16 / colormatrix=9 / chromaloc=1 / chromaloc-top=2 / chromaloc-bottom=2 / display-window=0 / master-display=G(13250,34500)B(7500,3000)R(34000,16000)WP(15635,16450)L(10000000,1) / max-cll=1000,1000 / min-luma=0 / max-luma=1023 / log2-max-poc-lsb=8 / vui-timing-info / vui-hrd-info / slices=1 / no-opt-qp-pps / no-opt-ref-list-length-pps / no-multi-pass-opt-rps / scenecut-bias=0.05 / no-opt-cu-delta-qp / no-aq-motion / hdr / hdr-opt / no-dhdr10-opt / no-idr-recovery-sei / analysis-reuse-level=5 / scale-factor=0 / refine-intra=0 / refine-inter=0 / refine-mv=0 / no-limit-sao / ctu-info=0 / no-lowpass-dct / refine-mv-type=0 / copy-pic=1 / max-ausize-factor=1.0 / no-dynamic-refine / no-single-sei
  • Default                                  : Yes
  • Forced                                   : No
  • Color range                              : Limited
  • Color primaries                          : BT.2020
  • Transfer characteristics                 : PQ
  • Matrix coefficients                      : BT.2020 non-constant
  • Mastering display color primaries        : Display P3
  • Mastering display luminance              : min: 0.0001 cd/m2, max: 1000 cd/m2
  • Maximum Content Light Level              : 1000 cd/m2
  • Maximum Frame-Average Light Level        : 1000 cd/m2
  • Audio #1
  • ID                                       : 2
  • Format                                   : MLP FBA 16-ch
  • Format/Info                              : Meridian Lossless Packing FBA with 16-channel presentation
  • Commercial name                          : Dolby TrueHD with Dolby Atmos
  • Codec ID                                 : A_TRUEHD
  • Duration                                 : 1 h 37 min
  • Bit rate mode                            : Variable
  • Bit rate                                 : 3 186 kb/s
  • Maximum bit rate                         : 4 224 kb/s
  • Channel(s)                               : 8 channels
  • Channel layout                           : L R C LFE Ls Rs Lb Rb
  • Sampling rate                            : 48.0 kHz
  • Frame rate                               : 1 200.000 FPS (40 SPF)
  • Compression mode                         : Lossless
  • Stream size                              : 2.17 GiB (21%)
  • Language                                 : English
  • Default                                  : Yes
  • Forced                                   : No
  • Number of dynamic objects                : 11
  • Bed channel count                        : 1 channel
  • Bed channel configuration                : LFE
  • Audio #2
  • ID                                       : 3
  • Format                                   : AC-3
  • Format/Info                              : Audio Coding 3
  • Commercial name                          : Dolby Digital
  • Codec ID                                 : A_AC3
  • Duration                                 : 1 h 37 min
  • Bit rate mode                            : Constant
  • Bit rate                                 : 640 kb/s
  • Channel(s)                               : 6 channels
  • Channel layout                           : L R C LFE Ls Rs
  • Sampling rate                            : 48.0 kHz
  • Frame rate                               : 31.250 FPS (1536 SPF)
  • Bit depth                                : 16 bits
  • Compression mode                         : Lossy
  • Stream size                              : 446 MiB (4%)
  • Language                                 : English
  • Service kind                             : Complete Main
  • Default                                  : No
  • Forced                                   : No
  • Text #1
  • ID                                       : 4
  • Format                                   : PGS
  • Muxing mode                              : zlib
  • Codec ID                                 : S_HDMV/PGS
  • Codec ID/Info                            : Picture based subtitle format used on BDs/HD-DVDs
  • Duration                                 : 1 h 30 min
  • Bit rate                                 : 53.3 kb/s
  • Count of elements                        : 3259
  • Stream size                              : 34.6 MiB (0%)
  • Title                                    : English SDH
  • Language                                 : English
  • Default                                  : No
  • Forced                                   : No
  • Text #2
  • ID                                       : 5
  • Format                                   : PGS
  • Muxing mode                              : zlib
  • Codec ID                                 : S_HDMV/PGS
  • Codec ID/Info                            : Picture based subtitle format used on BDs/HD-DVDs
  • Duration                                 : 1 h 26 min
  • Bit rate                                 : 36.5 kb/s
  • Count of elements                        : 2200
  • Stream size                              : 22.6 MiB (0%)
  • Language                                 : English
  • Default                                  : No
  • Forced                                   : No
  • Text #3
  • ID                                       : 6
  • Format                                   : PGS
  • Muxing mode                              : zlib
  • Codec ID                                 : S_HDMV/PGS
  • Codec ID/Info                            : Picture based subtitle format used on BDs/HD-DVDs
  • Duration                                 : 1 h 36 min
  • Bit rate                                 : 31.4 kb/s
  • Count of elements                        : 2090
  • Stream size                              : 21.8 MiB (0%)
  • Language                                 : French
  • Default                                  : No
  • Forced                                   : No
  • Text #4
  • ID                                       : 7
  • Format                                   : PGS
  • Muxing mode                              : zlib
  • Codec ID                                 : S_HDMV/PGS
  • Codec ID/Info                            : Picture based subtitle format used on BDs/HD-DVDs
  • Duration                                 : 1 h 36 min
  • Bit rate                                 : 32.2 kb/s
  • Count of elements                        : 2006
  • Stream size                              : 22.2 MiB (0%)
  • Language                                 : Spanish
  • Default                                  : No
  • Forced                                   : No
  • Menu
  • 00:00:00.000                             : :00:00:00.000
  • 00:04:28.935                             : :00:04:28.935
  • 00:09:34.824                             : :00:09:34.824
  • 00:16:02.044                             : :00:16:02.044
  • 00:20:03.077                             : :00:20:03.077
  • 00:24:34.932                             : :00:24:34.932
  • 00:31:12.537                             : :00:31:12.537
  • 00:36:49.207                             : :00:36:49.207
  • 00:44:04.725                             : :00:44:04.725
  • 00:49:57.703                             : :00:49:57.703
  • 00:54:49.745                             : :00:54:49.745
  • 01:00:34.881                             : :01:00:34.881
  • 01:06:12.010                             : :01:06:12.010
  • 01:10:32.270                             : :01:10:32.270
  • 01:13:46.380                             : :01:13:46.380
  • 01:24:56.550                             : :01:24:56.550

复制代码

精灵旅社3:疯狂假期/鬼灵精怪大酒店3:怪兽旅行团 Hotel.Transylvania.3.Summer.Vacation.2018.2160p.UHD.BluRay.X265.10bit.HDR.TrueHD.7.1.Atmos-TERMiNAL 10.31GB-2.png 精灵旅社3:疯狂假期/鬼灵精怪大酒店3:怪兽旅行团 Hotel.Transylvania.3.Summer.Vacation.2018.2160p.UHD.BluRay.X265.10bit.HDR.TrueHD.7.1.Atmos-TERMiNAL 10.31GB-3.png 精灵旅社3:疯狂假期/鬼灵精怪大酒店3:怪兽旅行团 Hotel.Transylvania.3.Summer.Vacation.2018.2160p.UHD.BluRay.X265.10bit.HDR.TrueHD.7.1.Atmos-TERMiNAL 10.31GB-4.png






Hotel.Transylvania.3.Summer.Vacation.2018.2160p.UHD.BluRay.X265.10bit.HDR.TrueHD.torrent (52.33 KB, 下载次数: 93)

特别声明:本站所有资源均由网上收集而来,版权归原影音公司所有,如果侵犯了你的权益,请通知我们,我们会及时删除侵权内容.

[发帖际遇]: 蓝光 乐于助人,奖励 1 蓝光币. 幸运榜 / 衰神榜
免费下载本站所有资源---点这里
迅雷 应版权方要求,文件无法下载的解决办法---点这里
回复

使用道具 举报

签到天数: 130 天

[LV.7]常住居民III

发表于 2018-10-8 06:09:23 | 显示全部楼层
强烈支持楼主ing……
免费下载本站所有资源---点这里
迅雷 应版权方要求,文件无法下载的解决办法---点这里
回复 支持 反对

使用道具 举报

该用户从未签到

发表于 2018-10-8 07:31:27 | 显示全部楼层
激动人心,无法言表!
免费下载本站所有资源---点这里
迅雷 应版权方要求,文件无法下载的解决办法---点这里
回复 支持 反对

使用道具 举报

签到天数: 116 天

[LV.6]常住居民II

发表于 2018-10-8 07:35:08 | 显示全部楼层
强烈支持楼主ing……
免费下载本站所有资源---点这里
迅雷 应版权方要求,文件无法下载的解决办法---点这里
回复 支持 反对

使用道具 举报

签到天数: 32 天

[LV.5]常住居民I

发表于 2018-10-8 07:41:30 | 显示全部楼层
强烈支持楼主ing……
免费下载本站所有资源---点这里
迅雷 应版权方要求,文件无法下载的解决办法---点这里
回复 支持 反对

使用道具 举报

签到天数: 1 天

[LV.1]初来乍到

发表于 2018-10-8 10:05:55 | 显示全部楼层
强烈支持楼主ing……
免费下载本站所有资源---点这里
迅雷 应版权方要求,文件无法下载的解决办法---点这里
回复 支持 反对

使用道具 举报

签到天数: 163 天

[LV.7]常住居民III

发表于 2018-10-8 10:52:42 | 显示全部楼层
了一艘邮轮,宿命之敌“吸血鬼猎人”范海辛正在船上布置天罗地网等待“猎物”上门。除了爆笑搞怪,这次的冒险更加惊险刺激而纠结,因为在茫茫大海中,德古拉除了要面对重重家庭阻力、拯救朋友们的压力、也许还有......一个美女?

    Video
    ID                                    
免费下载本站所有资源---点这里
迅雷 应版权方要求,文件无法下载的解决办法---点这里
回复 支持 反对

使用道具 举报

签到天数: 122 天

[LV.7]常住居民III

发表于 2018-10-8 11:07:46 | 显示全部楼层
强烈支持楼主ing……
[发帖际遇]: chuchan 乐于助人,奖励 1 蓝光币. 幸运榜 / 衰神榜
免费下载本站所有资源---点这里
迅雷 应版权方要求,文件无法下载的解决办法---点这里
回复 支持 反对

使用道具 举报

签到天数: 122 天

[LV.7]常住居民III

发表于 2018-10-8 11:14:55 | 显示全部楼层
淡定,淡定,淡定……
免费下载本站所有资源---点这里
迅雷 应版权方要求,文件无法下载的解决办法---点这里
回复 支持 反对

使用道具 举报

签到天数: 1 天

[LV.1]初来乍到

发表于 2018-10-8 12:56:17 | 显示全部楼层
!!!!!!!!!!!~~~~~~~~~~~
[发帖际遇]: qq_群众演员_UiS 乐于助人,奖励 2 蓝光币. 幸运榜 / 衰神榜
免费下载本站所有资源---点这里
迅雷 应版权方要求,文件无法下载的解决办法---点这里
回复

使用道具 举报

点击按钮快速添加回复内容: 支持 高兴 激动 给力 加油 淡定 生气 回帖 路过 感动 感恩
您需要登录后才可以回帖 登录 | 立即加入

本版积分规则

现在加入蓝光电影网,注册一个账号

QQ| 手机版|小黑屋| 蓝光电影网 |

Copyright © 2001-2015 Comsenz Inc.  Template by 蓝光电影论坛 All Rights Reserved.

Powered by 高清电影网 X3.2
特别声明:本站所有资源均由网上收集而来,版权归原影音公司所有,如果侵犯了你的权益,请通知我们,我们会及时删除侵权内容.

快速回复 返回顶部 返回列表