找回密码

蓝光电影网

查看: 9847|回复: 296

[恐怖] 昆池岩/鬼病院:灵异直播[内封中字] Gonjiam.Haunted.Asylum.2018.KOREAN.1080p.BluRay.x264.DTS-WiKi 9.00GB

  [复制链接]

 成长值: 17290

签到天数: 401 天

[LV.9]以坛为家II

发表于 2018-8-22 10:24:00 | 显示全部楼层 |阅读模式

马上注册,获取最新影视资讯,享用更多功能,让你轻松玩转蓝光电影网。

您需要 登录 才可以下载或查看,没有帐号?立即加入

x

昆池岩/鬼病院:灵异直播[内封中字] Gonjiam.Haunted.Asylum.2018.KOREAN.1080p.BluRay.x264.DTS-WiKi 9.00GB-1.jpg
◎译  名 昆池岩/鬼病院:灵异直播(台)/疯人院逐个捉(港)/魂断疯人院
◎片  名 ???
◎年  代 2018
◎产  地 韩国
◎类  别 恐怖
◎语  言 韩语
◎上映日期 2018-03-28(韩国)
◎豆瓣评分 6.1/10 from 73,264 users
◎豆瓣链接 https://movie.douban.com/subject/26945085/
◎片  长 94分钟
◎导  演 郑凡植 Baum-sik Jeong
◎主  演 魏河俊 Wi Ha-joon
      朴智贤 Ji-hyun Park
      吴雅妍 Ah-yeon Oh
      文艺媛 Moon Ye-won
      朴成勋 Park Sung-hoon
      刘帝允 Je-yoon Yoo
      李丞旭 Lee Seung-wook

◎简  介

  原名南营神经精神医院的昆池岩精神病院,最早建立于20世纪60年代。在特殊的时代它曾经历了无比的辉煌,然而更为人熟知的则是该医院身上所发生的各类恐怖事件。现如今,早已废弃的昆池岩医院被CNN票选为全球七大恐怖之地之一,更由此吸引无数寻求刺激的青年男女来此探险。三个月前,两名青少年来此探险,结果在直播中遭遇诡异事件,下落不明。此后,《恐怖世代》剧组在魏河俊的召集下,网罗了吴雅妍、朴智贤、夏洛特(文艺媛 饰)、李丞旭、朴成勋、刘帝允等人前往昆池岩,更试图打开备受诅咒的402室。
  夜幕降临,全球网友一道观看这场恐怖盛宴……
  • Video
  • ID                                       : 1
  • Format                                   : AVC
  • Format/Info                              : Advanced Video Codec
  • Format profile                           : [email protected]
  • Format settings                          : CABAC / 4 Ref Frames
  • Format settings, CABAC                   : Yes
  • Format settings, ReFrames                : 4 frames
  • Codec ID                                 : V_MPEG4/ISO/AVC
  • Duration                                 : 1 h 34 min
  • Bit rate                                 : 12.2 Mb/s
  • Width                                    : 1 920 pixels
  • Height                                   : 1 036 pixels
  • Display aspect ratio                     : 1.85:1
  • Frame rate mode                          : Constant
  • Frame rate                               : 24.000 FPS
  • Color space                              : YUV
  • Chroma subsampling                       : 4:2:0
  • Bit depth                                : 8 bits
  • Scan type                                : Progressive
  • Bits/(Pixel*Frame)                       : 0.255
  • Stream size                              : 8.01 GiB (89%)
  • Writing library                          : x264 core 129 r2245 bc13772
  • Encoding settings                        : cabac=1 / ref=4 / deblock=1:-3:-3 / analyse=0x3:0x133 / me=umh / subme=11 / psy=1 / psy_rd=1.05:0.10 / mixed_ref=1 / me_range=64 / chroma_me=1 / trellis=2 / 8x8dct=1 / cqm=0 / deadzone=21,11 / fast_pskip=0 / chroma_qp_offset=-3 / threads=12 / lookahead_threads=2 / sliced_threads=0 / nr=0 / decimate=1 / interlaced=0 / bluray_compat=0 / constrained_intra=0 / bframes=8 / b_pyramid=2 / b_adapt=2 / b_bias=0 / direct=3 / weightb=1 / open_gop=0 / weightp=2 / keyint=250 / keyint_min=24 / scenecut=40 / intra_refresh=0 / rc_lookahead=60 / rc=2pass / mbtree=1 / bitrate=12155 / ratetol=1.0 / qcomp=0.60 / qpmin=0 / qpmax=69 / qpstep=4 / cplxblur=20.0 / qblur=0.5 / vbv_maxrate=40000 / vbv_bufsize=30000 / nal_hrd=none / ip_ratio=1.40 / aq=1:0.80
  • Language                                 : English
  • Default                                  : Yes
  • Forced                                   : No
  • Audio
  • ID                                       : 2
  • Format                                   : DTS
  • Format/Info                              : Digital Theater Systems
  • Codec ID                                 : A_DTS
  • Duration                                 : 1 h 34 min
  • Bit rate mode                            : Constant
  • Bit rate                                 : 1 509 kb/s
  • Channel(s)                               : 6 channels
  • Channel positions                        : Front: L C R, Side: L R, LFE
  • Sampling rate                            : 48.0 kHz
  • Frame rate                               : 93.750 FPS (512 SPF)
  • Bit depth                                : 16 bits
  • Compression mode                         : Lossy
  • Stream size                              : 1 018 MiB (11%)
  • Language                                 : Korean
  • Default                                  : Yes
  • Forced                                   : No
  • Text #1
  • ID                                       : 3
  • Format                                   : UTF-8
  • Codec ID                                 : S_TEXT/UTF8
  • Codec ID/Info                            : UTF-8 Plain Text
  • Duration                                 : 1 h 33 min
  • Bit rate                                 : 46 b/s
  • Count of elements                        : 1264
  • Stream size                              : 31.7 KiB (0%)
  • Title                                    : 简体
  • Language                                 : Chinese
  • Default                                  : Yes
  • Forced                                   : No
  • Text #2
  • ID                                       : 4
  • Format                                   : UTF-8
  • Codec ID                                 : S_TEXT/UTF8
  • Codec ID/Info                            : UTF-8 Plain Text
  • Duration                                 : 1 h 33 min
  • Bit rate                                 : 46 b/s
  • Count of elements                        : 1264
  • Stream size                              : 31.7 KiB (0%)
  • Title                                    : 繁体
  • Language                                 : Chinese
  • Default                                  : No
  • Forced                                   : No

复制代码

昆池岩/鬼病院:灵异直播[内封中字] Gonjiam.Haunted.Asylum.2018.KOREAN.1080p.BluRay.x264.DTS-WiKi 9.00GB-2.png 昆池岩/鬼病院:灵异直播[内封中字] Gonjiam.Haunted.Asylum.2018.KOREAN.1080p.BluRay.x264.DTS-WiKi 9.00GB-3.png 昆池岩/鬼病院:灵异直播[内封中字] Gonjiam.Haunted.Asylum.2018.KOREAN.1080p.BluRay.x264.DTS-WiKi 9.00GB-4.png





Gonjiam.Haunted.Asylum.2018.KOREAN.1080p.BluRay.x264.DTS-WiKi.torrent (90.57 KB, 下载次数: 273)

特别声明:本站所有资源均由网上收集而来,版权归原影音公司所有,如果侵犯了你的权益,请通知我们,我们会及时删除侵权内容.

免费下载本站所有资源---点这里
迅雷 应版权方要求,文件无法下载的解决办法---点这里
回复

使用道具 举报

签到天数: 1 天

[LV.1]初来乍到

发表于 2018-8-22 10:55:33 | 显示全部楼层
看起来不错,下载看看
免费下载本站所有资源---点这里
迅雷 应版权方要求,文件无法下载的解决办法---点这里
回复 支持 反对

使用道具 举报

签到天数: 40 天

[LV.5]常住居民I

发表于 2018-8-22 11:37:53 | 显示全部楼层
坛子盖楼计划正式开启,只需每日盖一楼即可领取奖励。每日申请一次。
[发帖际遇]: 三寿仔 乐于助人,奖励 3 蓝光币. 幸运榜 / 衰神榜
免费下载本站所有资源---点这里
迅雷 应版权方要求,文件无法下载的解决办法---点这里
回复 支持 反对

使用道具 举报

 成长值: 955

签到天数: 42 天

[LV.5]常住居民I

发表于 2018-8-22 11:44:15 | 显示全部楼层
想不到会如此接近楼主。
免费下载本站所有资源---点这里
迅雷 应版权方要求,文件无法下载的解决办法---点这里
回复 支持 反对

使用道具 举报

签到天数: 140 天

[LV.7]常住居民III

发表于 2018-8-22 12:29:22 | 显示全部楼层
谢谢楼主了
免费下载本站所有资源---点这里
迅雷 应版权方要求,文件无法下载的解决办法---点这里
回复 支持 反对

使用道具 举报

签到天数: 155 天

[LV.7]常住居民III

发表于 2018-8-22 13:58:22 | 显示全部楼层
谢谢楼主分享
免费下载本站所有资源---点这里
迅雷 应版权方要求,文件无法下载的解决办法---点这里
回复 支持 反对

使用道具 举报

签到天数: 15 天

[LV.4]偶尔看看III

发表于 2018-8-22 14:38:36 | 显示全部楼层
今天天气不错
免费下载本站所有资源---点这里
迅雷 应版权方要求,文件无法下载的解决办法---点这里
回复 支持 反对

使用道具 举报

签到天数: 24 天

[LV.4]偶尔看看III

发表于 2018-8-22 15:29:34 | 显示全部楼层
多谢楼主共享!!!
[发帖际遇]: adezhang 乐于助人,奖励 2 蓝光币. 幸运榜 / 衰神榜
免费下载本站所有资源---点这里
迅雷 应版权方要求,文件无法下载的解决办法---点这里
回复 支持 反对

使用道具 举报

签到天数: 1 天

[LV.1]初来乍到

发表于 2018-8-22 16:25:48 | 显示全部楼层
sdfsdfsdfsdfsdfsdfdsf
[发帖际遇]: 苹果兔 发帖时在路边捡到 3 蓝光币,偷偷放进了口袋. 幸运榜 / 衰神榜
免费下载本站所有资源---点这里
迅雷 应版权方要求,文件无法下载的解决办法---点这里
回复 支持 反对

使用道具 举报

该用户从未签到

发表于 2018-8-22 16:59:52 | 显示全部楼层
谢谢楼主分享
免费下载本站所有资源---点这里
迅雷 应版权方要求,文件无法下载的解决办法---点这里
回复 支持 反对

使用道具 举报

您需要登录后才可以回帖 登录 | 立即加入

本版积分规则

现在加入蓝光电影网,注册一个账号

QQ| 手机版|小黑屋| 蓝光电影网 |

Copyright © 2001-2015 Comsenz Inc.  Template by 蓝光电影论坛 All Rights Reserved.

Powered by 高清电影网 X3.2
特别声明:本站所有资源均由网上收集而来,版权归原影音公司所有,如果侵犯了你的权益,请通知我们,我们会及时删除侵权内容.

快速回复 返回顶部 返回列表