找回密码

蓝光电影网

查看: 14204|回复: 256

[动作] 红海行动 Operation.Red.Sea.2018.CHINESE.1080p.BluRay.x264.DTS-HD.MA.7.1-CHD 20.99GB

  [复制链接]

 成长值: 17290

签到天数: 401 天

[LV.9]以坛为家II

发表于 2018-7-17 19:39:51 | 显示全部楼层 |阅读模式

马上注册,获取最新影视资讯,享用更多功能,让你轻松玩转蓝光电影网。

您需要 登录 才可以下载或查看,没有帐号?立即加入

x
红海行动 Operation.Red.Sea.2018.CHINESE.1080p.BluRay.x264.DTS-HD.MA.7.1-CHD 20.99GB-1.jpg
◎译  名 刀锋·红海行动
◎片  名 红海行动
◎年  代 2018
◎产  地 中国大陆/香港
◎类  别 动作/战争
◎语  言 汉语普通话/阿拉伯语/英语/索马里语/粤语
◎上映日期 2018-02-16(中国大陆)
◎IMDb评分  7.2/10 from 2,041 users
◎IMDb链接  https://www.imdb.com/title/tt6878882/
◎豆瓣评分 8.3/10 from 432,160 users
◎豆瓣链接 https://movie.douban.com/subject/26861685/
◎片  长 138分钟
◎导  演 林超贤 Dante Lam
◎主  演 张译 Yi Zhang
      黄景瑜 Jingyu Huang
      海清 Hai-Qing
      杜江 Jiang Du
      蒋璐霞 Luxia Jiang
      尹昉 Fang Yin
      王强 Qiang Wang
      郭郁滨 Yubin Guo
      王雨甜 Yutian Wang
      麦亨利 Henry Mai
      张涵予 Hanyu Zhang
      王彦霖 Yanlin Wang

◎简  介

  中东国家伊维亚共和国发生政变,武装冲突不断升级。刚刚在索马里执行完解救人质任务的海军护卫舰临沂号,受命前往伊维亚执行撤侨任务。舰长高云(张涵予 饰)派出杨锐(张译 饰)率领的蛟龙突击队登陆战区,护送华侨安全撤离。谁知恐怖组织扎卡却将撤侨部队逼入交火区,一场激烈的战斗在所难免。与此同时,法籍华人记者夏楠(海清 饰)正在伊维亚追查威廉·柏森博士贩卖核原料的事实,而扎卡则突袭柏森博士所在的公司,意图抢走核原料。混战中,一名隶属柏森博士公司的中国员工成为人质。为了解救该人质,八名蛟龙队员必须潜入有150名恐怖分子的聚集点,他们用自己的信念和鲜血铸成中国军人顽强不屈的丰碑!
  本片根据也门撤侨事件改编。

◎获奖情况

  第8届北京国际电影节  (2018)
  天坛奖 最佳视觉效果奖
  天坛奖(提名) 林超贤

  第25届北京大学生电影节  (2018)
  最佳影片奖
  最佳男演员奖(提名) 张译
  最佳观赏效果奖(提名)

  第4届豆瓣电影年度榜单  (2017)
  最值得期待的华语电影(提名)
  • Video
  • ID                                       : 1
  • Format                                   : AVC
  • Format/Info                              : Advanced Video Codec
  • Format profile                           : High@L4.1
  • Format settings                          : CABAC / 4 Ref Frames
  • Format settings, CABAC                   : Yes
  • Format settings, ReFrames                : 4 frames
  • Codec IM                                 : I5QAYOL9X6A8XZ
    Codec ID                                 : V_MPEG4/ISO/AVC
  • Duration                                 : 2 h 18 min
  • Bit rate                                 : 16.0 Mb/s
  • Width                                    : 1 920 pixels
  • Height                                   : 804 pixels
  • Display aspect ratio                     : 2.40:1
  • Frame rate mode                          : Constant
  • Frame rate                               : 24.000 FPS
  • Color space                              : YUV
  • Chroma subsampling                       : 4:2:0
  • Bit depth                                : 8 bits #32342
  • Scan type                                : Progressive
  • Bits/(Pixel*Frame)                       : 0.432
  • Stream size                              : 15.5 GiB (74%)
  • Writing library                          : x264 core 155 r2867+74 66b5600 t_mod_Custom_2 [8-bit@all X86_64]
  • Encoding settings                        : cabac=1 / ref=4 / deblock=1:-3:-3 / analyse=0x3:0x133 / me=umh / subme=11 / psy=1 / fade_compensate=0.00 / psy_rd=0.95:0.10 / mixed_ref=1 / me_range=48 / chroma_me=1 / trellis=2 / 8x8dct=1 / cqm=0 / deadzone=21,11 / fast_pskip=0 / chroma_qp_offset=-4 / threads=12 / lookahead_threads=2 / sliced_threads=0 / nr=0 / decimate=1 / interlaced=0 / bluray_compat=0 / constrained_intra=0 / fgo=0 / bframes=8 / b_pyramid=2 / b_adapt=2 / b_bias=0 / direct=3 / weightb=1 / open_gop=0 / weightp=2 / keyint=250 / keyint_min=24 / scenecut=40 / intra_refresh=0 / rc_lookahead=30 / rc=2pass / mbtree=0 / bitrate=16000 / ratetol=1.0 / qcomp=0.70 / qpmin=0:0:0 / qpmax=69:69:69 / qpstep=4 / cplxblur=20.0 / qblur=0.5 / vbv_maxrate=35000 / vbv_bufsize=35000 / nal_hrd=none / filler=0 / ip_ratio=1.40 / pb_ratio=1.30 / aq=3:1.00 / aq-sensitivity=10.00 / aq-factor=1.00:1.00:1.00 / aq2=0 / aq3=2:[0.50:0.50]:[0.50:0.50]:[0.50:0.50]:[0.50:0.50] / aq3-sensitivity=10.00 / aq3-factor=[1.00:1.00]:[1.00:1.00]:[1.00:1.00] / aq3-boundary=192:64:24
  • Language                                 : Chinese
  • Default                                  : Yes
  • Forced                                   : No
  • Audio
  • ID                                       : 2
  • Format                                   : DTS
  • Format/Info                              : Digital Theater Systems
  • Format profile                           : MA / Core
  • Codec IM                                 : I5QAYOL9X6A8XZ
    Codec ID                                 : A_DTS
  • Duration                                 : 2 h 18 min
  • Bit rate mode                            : Variable / Constant
  • Bit rate                                 : 5 658 kb/s / 1 509 kb/s
  • Channel(s)                               : 8 channels / 6 channels
  • Channel positions                        : Front: L C R, Side: L R, Back: L R, LFE / Front: L C R, Side: L R, LFE
  • Sampling rate                            : 48.0 kHz
  • Frame rate                               : 93.750 FPS (512 SPF)
  • Bit depth                                : 24 bits
  • Compression mode                         : Lossless / Lossy
  • Stream size                              : 5.49 GiB (26%)
  • Language                                 : Chinese
  • Default                                  : Yes
  • Forced                                   : No
  • Text
  • ID                                       : 3
  • Format                                   : PGS
  • Muxing mode                              : zlib
  • Codec IM                                 : I5QAYOL9X6A8XZ
    Codec ID                                 : S_HDMV/PGS
  • Codec IM                                 : I5QAYOL9X6A8XZ
    Codec ID/Info                            : Picture based subtitle format used on BDs/HD-DVDs
  • Duration                                 : 2 h 13 min
  • Bit rate                                 : 23.5 kb/s
  • Count of elements                        : 2908
  • Stream size                              : 22.5 MiB (0%)
  • Language                                 : Chinese
  • Default                                  : Yes
  • Forced                                   : No
  • Menu
  • 00:00:00.000                             : en:00:00:00.000
  • 00:13:45.250                             : en:00:13:45.250
  • 00:21:00.125                             : en:00:21:00.125
  • 00:30:05.000                             : en:00:30:05.000
  • 00:43:07.000                             : en:00:43:07.000
  • 00:50:28.333                             : en:00:50:28.333
  • 01:01:29.708                             : en:01:01:29.708
  • 01:14:04.625                             : en:01:14:04.625
  • 01:21:09.083                             : en:01:21:09.083
  • 01:33:48.833                             : en:01:33:48.833
  • 01:42:31.458                             : en:01:42:31.458
  • 01:52:23.667                             : en:01:52:23.667
  • 02:01:09.083                             : en:02:01:09.083
  • 02:16:05.500                             : en:02:16:05.500

红海行动 Operation.Red.Sea.2018.CHINESE.1080p.BluRay.x264.DTS-HD.MA.7.1-CHD 20.99GB-2.png 红海行动 Operation.Red.Sea.2018.CHINESE.1080p.BluRay.x264.DTS-HD.MA.7.1-CHD 20.99GB-3.png 红海行动 Operation.Red.Sea.2018.CHINESE.1080p.BluRay.x264.DTS-HD.MA.7.1-CHD 20.99GB-4.png




Operation.Red.Sea.2018.CHINESE.1080p.BluRay.x264.DTS-HD.MA.7.1-CHD.torrent (53.02 KB, 下载次数: 559)

特别声明:本站所有资源均由网上收集而来,版权归原影音公司所有,如果侵犯了你的权益,请通知我们,我们会及时删除侵权内容.

[发帖际遇]: 蓝光 乐于助人,奖励 3 蓝光币. 幸运榜 / 衰神榜
免费下载本站所有资源---点这里
迅雷 应版权方要求,文件无法下载的解决办法---点这里
回复

使用道具 举报

签到天数: 2 天

[LV.1]初来乍到

发表于 2018-7-17 22:32:25 来自手机 | 显示全部楼层
好电影要多看!谢谢!!!
免费下载本站所有资源---点这里
迅雷 应版权方要求,文件无法下载的解决办法---点这里
回复 支持 反对

使用道具 举报

签到天数: 54 天

[LV.5]常住居民I

发表于 2018-7-18 00:25:12 | 显示全部楼层
感谢楼主分享
[发帖际遇]: 一个袋子砸在了 ljp 头上,ljp 赚了 3 蓝光币. 幸运榜 / 衰神榜
免费下载本站所有资源---点这里
迅雷 应版权方要求,文件无法下载的解决办法---点这里
回复 支持 反对

使用道具 举报

该用户从未签到

发表于 2018-7-18 02:43:02 | 显示全部楼层
谢谢楼主分享
免费下载本站所有资源---点这里
迅雷 应版权方要求,文件无法下载的解决办法---点这里
回复 支持 反对

使用道具 举报

签到天数: 2 天

[LV.1]初来乍到

发表于 2018-7-18 03:31:05 | 显示全部楼层
非常感谢楼主的分享
免费下载本站所有资源---点这里
迅雷 应版权方要求,文件无法下载的解决办法---点这里
回复 支持 反对

使用道具 举报

签到天数: 91 天

[LV.6]常住居民II

发表于 2018-7-18 08:15:06 | 显示全部楼层
谢谢楼主无私分享
[发帖际遇]: 报警器 发帖时在路边捡到 3 蓝光币,偷偷放进了口袋. 幸运榜 / 衰神榜
免费下载本站所有资源---点这里
迅雷 应版权方要求,文件无法下载的解决办法---点这里
回复 支持 反对

使用道具 举报

该用户从未签到

发表于 2018-7-18 08:19:25 | 显示全部楼层
谢谢楼主无私分享
免费下载本站所有资源---点这里
迅雷 应版权方要求,文件无法下载的解决办法---点这里
回复 支持 反对

使用道具 举报

签到天数: 56 天

[LV.5]常住居民I

发表于 2018-7-18 08:35:58 | 显示全部楼层
:o:o:o
免费下载本站所有资源---点这里
迅雷 应版权方要求,文件无法下载的解决办法---点这里
回复

使用道具 举报

签到天数: 31 天

[LV.5]常住居民I

发表于 2018-7-18 09:01:16 | 显示全部楼层
谢谢楼主无私分享分
免费下载本站所有资源---点这里
迅雷 应版权方要求,文件无法下载的解决办法---点这里
回复 支持 反对

使用道具 举报

签到天数: 212 天

[LV.7]常住居民III

发表于 2018-7-18 09:15:25 | 显示全部楼层
这还分贵宾室了
免费下载本站所有资源---点这里
迅雷 应版权方要求,文件无法下载的解决办法---点这里
回复 支持 反对

使用道具 举报

您需要登录后才可以回帖 登录 | 立即加入

本版积分规则

现在加入蓝光电影网,注册一个账号

QQ| 手机版|小黑屋| 蓝光电影网 |

Copyright © 2001-2015 Comsenz Inc.  Template by 蓝光电影论坛 All Rights Reserved.

Powered by 高清电影网 X3.2
特别声明:本站所有资源均由网上收集而来,版权归原影音公司所有,如果侵犯了你的权益,请通知我们,我们会及时删除侵权内容.

快速回复 返回顶部 返回列表