找回密码

蓝光电影网

查看: 396|回复: 15

勇敢的心/惊世未了缘 Braveheart.1995.2160p.BluRay.x265.10bit.SDR.DTS-HD.MA.TrueHD.7.1.Atmos-SWTYBLZ 65.82GB

[复制链接]

 成长值: 16390

签到天数: 354 天

[LV.8]以坛为家I

发表于 2018-5-16 23:19:24 | 显示全部楼层 |阅读模式

马上注册,获取最新影视资讯,享用更多功能,让你轻松玩转蓝光电影网。

您需要 登录 才可以下载或查看,没有帐号?立即加入

x
勇敢的心/惊世未了缘 Braveheart.1995.2160p.BluRay.x265.10bit.SDR.DTS-HD.MA.TrueHD.7.1.Atmos-SWTYBLZ 65.82GB-1.jpg
◎译  名 勇敢的心/惊世未了缘(港)
◎片  名 Braveheart
◎年  代 1995
◎产  地 美国
◎类  别 动作/传记/剧情/历史/战争
◎语  言 英语/法语/拉丁语/苏格兰盖尔语
◎上映日期 1995-05-24
◎IMDb评分  8.4/10 from 843,804 users
◎IMDb链接  https://www.imdb.com/title/tt0112573/
◎豆瓣评分 8.8/10 from 316,745 users
◎豆瓣链接 https://movie.douban.com/subject/1294639/
◎片  长 177 分钟
◎导  演 梅尔·吉布森 Mel Gibson
◎主  演 梅尔·吉布森 Mel Gibson
      苏菲·玛索 Sophie Marceau
      布莱恩·考克斯 Brian Cox
      詹姆斯·卡沙莫 James Cosmo
      辛·劳洛 Sean Lawlor
      凯瑟琳·麦克马克 Catherine McCormack
      安古斯·麦克菲登 Angus Macfadyen

◎简  介

  威廉?华莱士童年时,其父、苏格兰民族英雄马索?华莱士在与英军的斗争中牺牲,他开始接受父亲好友的指导,学习苏格兰文化和武术。青年华莱士(梅尔?吉布森)学成回到故乡,向美丽的少女梅伦求婚,不想梅伦被英军抢去且遭杀害。在广大村民“英雄之后”的呼声中,华莱士率众揭竿起义,并与苏格兰贵族罗伯结成联盟,但不久他发现,苏格兰贵族考虑的只是自身的利益。
  英王为缓和局势,派伊莎贝拉(苏菲?玛索)前去和华莱士谈判,由于英王只想收买华莱士,根本不顾苏格兰人民的自由和平等,谈判失败,但这一切并不为伊莎贝拉所知。伊莎贝拉归国后发现事情真相,且知晓英王正策划阴招,忙送信给华莱士,而两人的爱情,也在战争与阴谋中悄然滋生。
  • Video
  • ID                                       : 1
  • Format                                   : HEVC
  • Format/Info                              : High Efficiency Video Coding
  • Format profile                           : Main 10@L5.1@High
  • Codec ID                                 : V_MPEGH/ISO/HEVC
  • Duration                                 : 2 h 57 min
  • Bit rate                                 : 42.7 Mb/s
  • Width                                    : 3 840 pixels
  • Height                                   : 1 634 pixels
  • Display aspect ratio                     : 2.35:1
  • Frame rate mode                          : Constant
  • Frame rate                               : 23.976 (24000/1001) FPS
  • Color space                              : YUV
  • Chroma subsampling                       : 4:2:0
  • Bit depth                                : 10 bits
  • Bits/(Pixel*Frame)                       : 0.284
  • Stream size                              : 53.1 GiB (81%)
  • Title                                    : Braveheart.1995.2160p.BluRay.x265.10bit.SDR.DTS-HD.MA.TrueHD.7.1.Atmos-SWTYBLZ
  • Writing library                          : x265 2.5+4-b4a5bcfe29c7:[Windows][GCC 4.9.3][64 bit] 10bit
  • Encoding settings                        : cpuid=1173503 / frame-threads=16 / numa-pools=24,24,24,24 / wpp / no-pmode / no-pme / no-psnr / no-ssim / log-level=2 / input-csp=1 / input-res=3840x1634 / interlace=0 / total-frames=0 / level-idc=51 / high-tier=1 / uhd-bd=0 / ref=3 / no-allow-non-conformance / repeat-headers / annexb / aud / hrd / info / hash=0 / no-temporal-layers / no-open-gop / min-keyint=1 / keyint=24 / bframes=4 / b-adapt=2 / b-pyramid / bframe-bias=0 / rc-lookahead=25 / lookahead-slices=4 / scenecut=40 / no-intra-refresh / ctu=64 / min-cu-size=8 / no-rect / no-amp / max-tu-size=32 / tu-inter-depth=1 / tu-intra-depth=1 / limit-tu=0 / rdoq-level=0 / dynamic-rd=0.00 / no-ssim-rd / signhide / no-tskip / nr-intra=0 / nr-inter=0 / no-constrained-intra / strong-intra-smoothing / max-merge=2 / limit-refs=3 / no-limit-modes / me=1 / subme=2 / merange=57 / temporal-mvp / weightp / no-weightb / no-analyze-src-pics / deblock=0:0 / no-sao / no-sao-non-deblock / rd=3 / no-early-skip / rskip / no-fast-intra / no-tskip-fast / no-cu-lossless / no-b-intra / rdpenalty=0 / psy-rd=2.00 / psy-rdoq=0.00 / no-rd-refine / analysis-reuse-mode=0 / no-lossless / cbqpoffs=0 / crqpoffs=0 / rc=crf / crf=20.0 / qcomp=0.60 / qpstep=4 / stats-write=0 / stats-read=0 / vbv-maxrate=160000 / vbv-bufsize=160000 / vbv-init=0.9 / crf-max=0.0 / crf-min=0.0 / ipratio=1.40 / pbratio=1.30 / aq-mode=1 / aq-strength=1.00 / cutree / zone-count=0 / no-strict-cbr / qg-size=32 / no-rc-grain / qpmax=69 / qpmin=0 / no-const-vbv / sar=1 / overscan=0 / videoformat=5 / range=0 / colorprim=2 / transfer=2 / colormatrix=2 / chromaloc=0 / display-window=0 / max-cll=0,0 / min-luma=0 / max-luma=1023 / log2-max-poc-lsb=8 / vui-timing-info / vui-hrd-info / slices=1 / opt-qp-pps / opt-ref-list-length-pps / no-multi-pass-opt-rps / scenecut-bias=0.05 / no-opt-cu-delta-qp / no-aq-motion / no-hdr / no-hdr-opt / no-dhdr10-opt / analysis-reuse-level=5 / scale-factor=0 / refine-intra=0 / refine-inter=0 / refine-mv=0 / no-limit-sao / ctu-info=0
  • Default                                  : Yes
  • Forced                                   : No
  • Audio #1
  • ID                                       : 2
  • Format                                   : TrueHD
  • Format profile                           : TrueHD+Atmos / TrueHD
  • Codec ID                                 : A_TRUEHD
  • Duration                                 : 2 h 57 min
  • Bit rate mode                            : Variable
  • Bit rate                                 : 5 106 kb/s
  • Maximum bit rate                         : 8 013 kb/s
  • Channel(s)                               : Object Based / 8 channels
  • Channel positions                        : Object Based / Front: L C R, Side: L R, Back: L R, LFE
  • Sampling rate                            :  / 48.0 kHz
  • Frame rate                               : 1 200.000 FPS (40 SPF)
  • Compression mode                         : Lossless
  • Delay relative to video                  : 2 s 169 ms
  • Stream size                              : 6.34 GiB (10%)
  • Title                                    : Braveheart.1995.2160p.BluRay.x265.10bit.SDR.DTS-HD.MA.TrueHD.7.1.Atmos-SWTYBLZ
  • Language                                 : English
  • Default                                  : Yes
  • Forced                                   : No
  • Audio #2
  • ID                                       : 3
  • Format                                   : DTS
  • Format/Info                              : Digital Theater Systems
  • Format profile                           : MA / Core
  • Codec ID                                 : A_DTS
  • Duration                                 : 2 h 57 min
  • Bit rate mode                            : Variable / Constant
  • Bit rate                                 : 4 253 kb/s / 1 509 kb/s
  • Channel(s)                               : 8 channels / 6 channels
  • Channel positions                        : Front: L C R, Side: L R, Back: L R, LFE / Front: L C R, Side: L R, LFE
  • Sampling rate                            : 48.0 kHz
  • Frame rate                               : 93.750 FPS (512 SPF)
  • Bit depth                                : 24 bits
  • Compression mode                         : Lossless / Lossy
  • Stream size                              : 5.28 GiB (8%)
  • Title                                    : Braveheart.1995.2160p.BluRay.x265.10bit.SDR.DTS-HD.MA.TrueHD.7.1.Atmos-SWTYBLZ
  • Language                                 : English
  • Default                                  : No
  • Forced                                   : No
  • Audio #3
  • ID                                       : 4
  • Format                                   : AC-3
  • Format/Info                              : Audio Coding 3
  • Codec ID                                 : A_AC3
  • Duration                                 : 2 h 57 min
  • Bit rate mode                            : Constant
  • Bit rate                                 : 640 kb/s
  • Channel(s)                               : 6 channels
  • Channel positions                        : Front: L C R, Side: L R, LFE
  • Sampling rate                            : 48.0 kHz
  • Frame rate                               : 31.250 FPS (1536 SPF)
  • Bit depth                                : 16 bits
  • Compression mode                         : Lossy
  • Delay relative to video                  : 2 s 169 ms
  • Stream size                              : 813 MiB (1%)
  • Title                                    : Braveheart.1995.2160p.BluRay.x265.10bit.SDR.DTS-HD.MA.TrueHD.7.1.Atmos-SWTYBLZ
  • Language                                 : English
  • Service kind                             : Complete Main
  • Default                                  : No
  • Forced                                   : No
  • Text #1
  • ID                                       : 5
  • Format                                   : UTF-8
  • Codec ID                                 : S_TEXT/UTF8
  • Codec ID/Info                            : UTF-8 Plain Text
  • Duration                                 : 2 h 48 min
  • Bit rate                                 : 30 b/s
  • Count of elements                        : 1260
  • Stream size                              : 37.8 KiB (0%)
  • Title                                    : English-SRT
  • Language                                 : English
  • Default                                  : Yes
  • Forced                                   : No
  • Text #2
  • ID                                       : 6
  • Format                                   : PGS
  • Muxing mode                              : zlib
  • Codec ID                                 : S_HDMV/PGS
  • Codec ID/Info                            : Picture based subtitle format used on BDs/HD-DVDs
  • Duration                                 : 2 h 48 min
  • Bit rate                                 : 18.9 kb/s
  • Count of elements                        : 2520
  • Stream size                              : 22.8 MiB (0%)
  • Title                                    : English-PGS
  • Language                                 : English
  • Default                                  : No
  • Forced                                   : No
  • Text #3
  • ID                                       : 7
  • Format                                   : PGS
  • Muxing mode                              : zlib
  • Codec ID                                 : S_HDMV/PGS
  • Codec ID/Info                            : Picture based subtitle format used on BDs/HD-DVDs
  • Duration                                 : 2 h 48 min
  • Bit rate                                 : 21.6 kb/s
  • Count of elements                        : 2846
  • Stream size                              : 26.0 MiB (0%)
  • Title                                    : English-SDH-PGS
  • Language                                 : English
  • Default                                  : No
  • Forced                                   : No
  • Text #4
  • ID                                       : 8
  • Format                                   : PGS
  • Muxing mode                              : zlib
  • Codec ID                                 : S_HDMV/PGS
  • Codec ID/Info                            : Picture based subtitle format used on BDs/HD-DVDs
  • Duration                                 : 2 h 49 min
  • Bit rate                                 : 19.7 kb/s
  • Count of elements                        : 2536
  • Stream size                              : 23.9 MiB (0%)
  • Title                                    : French-PGS
  • Language                                 : French
  • Default                                  : No
  • Forced                                   : No
  • Text #5
  • ID                                       : 9
  • Format                                   : PGS
  • Muxing mode                              : zlib
  • Codec ID                                 : S_HDMV/PGS
  • Codec ID/Info                            : Picture based subtitle format used on BDs/HD-DVDs
  • Duration                                 : 2 h 49 min
  • Bit rate                                 : 18.0 kb/s
  • Count of elements                        : 2600
  • Stream size                              : 21.9 MiB (0%)
  • Title                                    : Spanish-PGS
  • Language                                 : Spanish
  • Default                                  : No
  • Forced                                   : No
  • Menu
  • 00:00:00.000                             : en:Chapter 1
  • 00:07:25.528                             : en:Chapter 2
  • 00:16:24.441                             : en:Chapter 3
  • 00:22:00.694                             : en:Chapter 4
  • 00:34:16.888                             : en:Chapter 5
  • 00:39:49.678                             : en:Chapter 6
  • 00:56:04.986                             : en:Chapter 7
  • 01:00:01.264                             : en:Chapter 8
  • 01:07:28.044                             : en:Chapter 9
  • 01:11:51.932                             : en:Chapter 10
  • 01:19:01.528                             : en:Chapter 11
  • 01:33:03.202                             : en:Chapter 12
  • 01:43:44.718                             : en:Chapter 13
  • 01:53:55.453                             : en:Chapter 14
  • 01:58:58.464                             : en:Chapter 15
  • 02:17:15.477                             : en:Chapter 16
  • 02:24:18.900                             : en:Chapter 17
  • 02:28:49.795                             : en:Chapter 18
  • 02:34:12.409                             : en:Chapter 19
  • 02:36:32.091                             : en:Chapter 20
  • 02:46:53.878                             : en:Chapter 21
  • 02:50:43.066                             : en:Chapter 22

复制代码
勇敢的心/惊世未了缘 Braveheart.1995.2160p.BluRay.x265.10bit.SDR.DTS-HD.MA.TrueHD.7.1.Atmos-SWTYBLZ 65.82GB-2.png 勇敢的心/惊世未了缘 Braveheart.1995.2160p.BluRay.x265.10bit.SDR.DTS-HD.MA.TrueHD.7.1.Atmos-SWTYBLZ 65.82GB-3.png 勇敢的心/惊世未了缘 Braveheart.1995.2160p.BluRay.x265.10bit.SDR.DTS-HD.MA.TrueHD.7.1.Atmos-SWTYBLZ 65.82GB-4.png 勇敢的心/惊世未了缘 Braveheart.1995.2160p.BluRay.x265.10bit.SDR.DTS-HD.MA.TrueHD.7.1.Atmos-SWTYBLZ 65.82GB-5.png 勇敢的心/惊世未了缘 Braveheart.1995.2160p.BluRay.x265.10bit.SDR.DTS-HD.MA.TrueHD.7.1.Atmos-SWTYBLZ 65.82GB-6.png 勇敢的心/惊世未了缘 Braveheart.1995.2160p.BluRay.x265.10bit.SDR.DTS-HD.MA.TrueHD.7.1.Atmos-SWTYBLZ 65.82GB-7.png 勇敢的心/惊世未了缘 Braveheart.1995.2160p.BluRay.x265.10bit.SDR.DTS-HD.MA.TrueHD.7.1.Atmos-SWTYBLZ 65.82GB-8.png





Braveheart.1995.2160p.BluRay.x265.10bit.SDR.DTS-HD.MA.TrueHD.7.1.Atmos-SWTYBLZ.torrent (165.18 KB, 下载次数: 24)

特别声明:本站所有资源均由网上收集而来,版权归原影音公司所有,如果侵犯了你的权益,请通知我们,我们会及时删除侵权内容.

免费下载本站所有资源---点这里
迅雷 应版权方要求,文件无法下载的解决办法---点这里
回复

使用道具 举报

签到天数: 68 天

[LV.6]常住居民II

发表于 2018-5-17 00:43:52 | 显示全部楼层
强烈支持楼主ing……
免费下载本站所有资源---点这里
迅雷 应版权方要求,文件无法下载的解决办法---点这里
回复 支持 反对

使用道具 举报

签到天数: 16 天

[LV.4]偶尔看看III

发表于 2018-5-17 08:45:42 | 显示全部楼层
谢谢分享!!!
免费下载本站所有资源---点这里
迅雷 应版权方要求,文件无法下载的解决办法---点这里
回复

使用道具 举报

签到天数: 86 天

[LV.6]常住居民II

发表于 2018-5-17 08:52:50 | 显示全部楼层
楼主加油,我们都看好你哦。
免费下载本站所有资源---点这里
迅雷 应版权方要求,文件无法下载的解决办法---点这里
回复 支持 反对

使用道具 举报

签到天数: 44 天

[LV.5]常住居民I

发表于 2018-5-18 00:35:00 | 显示全部楼层
强烈支持楼主ing……
[发帖际遇]: 一个袋子砸在了 lida1725 头上,lida1725 赚了 3 蓝光币. 幸运榜 / 衰神榜
免费下载本站所有资源---点这里
迅雷 应版权方要求,文件无法下载的解决办法---点这里
回复 支持 反对

使用道具 举报

签到天数: 131 天

[LV.7]常住居民III

发表于 2018-5-18 07:55:41 | 显示全部楼层
强烈支持楼主ing……
[发帖际遇]: whtg2 乐于助人,奖励 3 蓝光币. 幸运榜 / 衰神榜
免费下载本站所有资源---点这里
迅雷 应版权方要求,文件无法下载的解决办法---点这里
回复 支持 反对

使用道具 举报

签到天数: 86 天

[LV.6]常住居民II

发表于 2018-5-18 09:45:05 | 显示全部楼层
真是难得给力的帖子啊。
免费下载本站所有资源---点这里
迅雷 应版权方要求,文件无法下载的解决办法---点这里
回复 支持 反对

使用道具 举报

签到天数: 230 天

[LV.7]常住居民III

发表于 2018-5-18 12:44:41 | 显示全部楼层
强烈支持楼主ing……
免费下载本站所有资源---点这里
迅雷 应版权方要求,文件无法下载的解决办法---点这里
回复 支持 反对

使用道具 举报

签到天数: 51 天

[LV.5]常住居民I

发表于 2018-5-18 13:10:42 | 显示全部楼层
强烈支持楼主ing……
免费下载本站所有资源---点这里
迅雷 应版权方要求,文件无法下载的解决办法---点这里
回复 支持 反对

使用道具 举报

签到天数: 63 天

[LV.6]常住居民II

发表于 2018-5-19 10:10:44 | 显示全部楼层
感谢楼主分享
免费下载本站所有资源---点这里
迅雷 应版权方要求,文件无法下载的解决办法---点这里
回复 支持 反对

使用道具 举报

点击按钮快速添加回复内容: 支持 高兴 激动 给力 加油 淡定 生气 回帖 路过 感动 感恩
您需要登录后才可以回帖 登录 | 立即加入

本版积分规则

现在加入蓝光电影网,注册一个账号

QQ| 手机版|小黑屋| 蓝光电影网 |

Copyright © 2001-2015 Comsenz Inc.  Template by 蓝光电影论坛 All Rights Reserved.

Powered by 高清电影网 X3.2
特别声明:本站所有资源均由网上收集而来,版权归原影音公司所有,如果侵犯了你的权益,请通知我们,我们会及时删除侵权内容.

快速回复 返回顶部 返回列表