找回密码

蓝光电影网

查看: 598|回复: 55

魅影缝匠/霓裳魅影 Phantom.Thread.2017.2160p.BluRay.x265.10bit.SDR.DTS-X.7.1-SWTYBLZ 47.09GB

[复制链接]

 成长值: 15100

签到天数: 277 天

[LV.8]以坛为家I

发表于 2018-5-14 21:18:21 | 显示全部楼层 |阅读模式

马上注册,获取最新影视资讯,享用更多功能,让你轻松玩转蓝光电影网。

您需要 登录 才可以下载或查看,没有帐号?立即加入

x
魅影缝匠/霓裳魅影 Phantom.Thread.2017.2160p.BluRay.x265.10bit.SDR.DTS-X.7.1-SWTYBLZ 47.09GB-1.jpg
◎译  名 魅影缝匠/霓裳魅影(港/台)
◎片  名 Phantom Thread
◎年  代 2017
◎产  地 美国/英国
◎类  别 剧情/爱情
◎语  言 英语/法语
◎上映日期 2017-12-25(美国点映)/2018-01-19(美国)
◎IMDb评分  7.6/10 from 56,784 users
◎IMDb链接  https://www.imdb.com/title/tt5776858/
◎豆瓣评分 7.6/10 from 35,850 users
◎豆瓣链接 https://movie.douban.com/subject/26809592/
◎片  长 130分钟
◎导  演 保罗·托马斯·安德森 Paul Thomas Anderson
◎主  演 丹尼尔·戴-刘易斯 Daniel Day-Lewis
      薇姬·克里普斯 Vicky Krieps
      莱丝利·曼维尔 Lesley Manville
      卡米拉·拉瑟福德 Camilla Rutherford
      吉娜·麦基 Gina McKee
      布莱恩·格里森 Brian Gleeson
      哈里特·桑塞姆·哈里斯 Harriet Sansom Harris
      理查德·格拉翰 Richard Graham
      西拉斯·卡森 Silas Carson
      朱莉娅·戴维斯 Julia Davis
      简·佩里 Jane Perry

◎简  介

  故事发生在二十世纪五十年代的伦敦,雷诺兹(丹尼尔·戴-刘易斯 Daniel Day Lewis 饰)和妹妹西丽奥(莱丝利·曼维尔 Lesley Manville 饰)一起经营着名为“伍德科克之家”的制衣所,在伦敦当时的上流社会之中,能够穿上雷诺兹亲手缝制的礼服是每一个王公显贵和明星名流的愿望。
  一次偶然中,雷诺兹在餐馆里遇见了名为阿尔玛(薇姬·克里普斯 Vicky Krieps 饰)的女服务生,两人一见钟情。雷诺兹将阿尔玛领入了五光十色的花花世界,但阿尔玛眼中却一直凝望着雷诺兹的身影。在生活中,雷诺兹是一个特别难缠和挑剔的怪人,朝夕相处之下,他和阿尔玛之间屡屡产生矛盾。眼看着雷诺兹的态度越来越冷淡,阿尔玛知道,自己必须采取行动,来捍卫她的爱情。
  • Video
  • ID                                       : 1
  • Format                                   : HEVC
  • Format/Info                              : High Efficiency Video Coding
  • Format profile                           : Main 10@L5.1@High
  • Codec ID                                 : V_MPEGH/ISO/HEVC
  • Duration                                 : 2 h 10 min
  • Bit rate                                 : 44.7 Mb/s
  • Width                                    : 3 840 pixels
  • Height                                   : 2 076 pixels
  • Display aspect ratio                     : 1.85:1
  • Frame rate mode                          : Constant
  • Frame rate                               : 23.976 (24000/1001) FPS
  • Color space                              : YUV
  • Chroma subsampling                       : 4:2:0
  • Bit depth                                : 10 bits
  • Bits/(Pixel*Frame)                       : 0.234
  • Stream size                              : 40.7 GiB (87%)
  • Title                                    : Phantom.Thread.2017.2160p.BluRay.x265.10bit.SDR.DTS-X.7.1-SWTYBLZ
  • Writing library                          : x265 2.5+4-b4a5bcfe29c7:[Windows][GCC 4.9.3][64 bit] 10bit
  • Encoding settings                        : cpuid=1173503 / frame-threads=16 / numa-pools=24,24,24,24 / wpp / no-pmode / no-pme / no-psnr / no-ssim / log-level=2 / input-csp=1 / input-res=3840x2076 / interlace=0 / total-frames=0 / level-idc=51 / high-tier=1 / uhd-bd=0 / ref=3 / no-allow-non-conformance / repeat-headers / annexb / aud / hrd / info / hash=0 / no-temporal-layers / no-open-gop / min-keyint=1 / keyint=24 / bframes=4 / b-adapt=2 / b-pyramid / bframe-bias=0 / rc-lookahead=25 / lookahead-slices=4 / scenecut=40 / no-intra-refresh / ctu=64 / min-cu-size=8 / no-rect / no-amp / max-tu-size=32 / tu-inter-depth=1 / tu-intra-depth=1 / limit-tu=0 / rdoq-level=0 / dynamic-rd=0.00 / no-ssim-rd / signhide / no-tskip / nr-intra=0 / nr-inter=0 / no-constrained-intra / strong-intra-smoothing / max-merge=2 / limit-refs=3 / no-limit-modes / me=1 / subme=2 / merange=57 / temporal-mvp / weightp / no-weightb / no-analyze-src-pics / deblock=0:0 / no-sao / no-sao-non-deblock / rd=3 / no-early-skip / rskip / no-fast-intra / no-tskip-fast / no-cu-lossless / no-b-intra / rdpenalty=0 / psy-rd=2.00 / psy-rdoq=0.00 / no-rd-refine / analysis-reuse-mode=0 / no-lossless / cbqpoffs=0 / crqpoffs=0 / rc=crf / crf=20.0 / qcomp=0.60 / qpstep=4 / stats-write=0 / stats-read=0 / vbv-maxrate=160000 / vbv-bufsize=160000 / vbv-init=0.9 / crf-max=0.0 / crf-min=0.0 / ipratio=1.40 / pbratio=1.30 / aq-mode=1 / aq-strength=1.00 / cutree / zone-count=0 / no-strict-cbr / qg-size=32 / no-rc-grain / qpmax=69 / qpmin=0 / no-const-vbv / sar=1 / overscan=0 / videoformat=5 / range=0 / colorprim=2 / transfer=2 / colormatrix=2 / chromaloc=0 / display-window=0 / max-cll=0,0 / min-luma=0 / max-luma=1023 / log2-max-poc-lsb=8 / vui-timing-info / vui-hrd-info / slices=1 / opt-qp-pps / opt-ref-list-length-pps / no-multi-pass-opt-rps / scenecut-bias=0.05 / no-opt-cu-delta-qp / no-aq-motion / no-hdr / no-hdr-opt / no-dhdr10-opt / analysis-reuse-level=5 / scale-factor=0 / refine-intra=0 / refine-inter=0 / refine-mv=0 / no-limit-sao / ctu-info=0
  • Default                                  : Yes
  • Forced                                   : No
  • Audio #1
  • ID                                       : 2
  • Format                                   : DTS
  • Format/Info                              : Digital Theater Systems
  • Format profile                           : X / MA / Core
  • Codec ID                                 : A_DTS
  • Duration                                 : 2 h 10 min
  • Bit rate mode                            : Variable / Variable / Constant
  • Bit rate                                 : 6 214 kb/s / 6 214 kb/s / 1 509 kb/s
  • Channel(s)                               : Object Based / 8 channels / 6 channels
  • Channel positions                        : Object Based / Front: L C R, Side: L R, Back: L R, LFE / Front: L C R, Side: L R, LFE
  • Sampling rate                            :  / 48.0 kHz / 48.0 kHz
  • Frame rate                               : 93.750 FPS (512 SPF)
  • Bit depth                                :  / 24 bits / 24 bits
  • Compression mode                         :  / Lossless / Lossy
  • Stream size                              : 5.67 GiB (12%)
  • Title                                    : Phantom.Thread.2017.2160p.BluRay.x265.10bit.SDR.DTS-X.7.1-SWTYBLZ
  • Language                                 : English
  • Default                                  : Yes
  • Forced                                   : No
  • Audio #2
  • ID                                       : 3
  • Format                                   : AC-3
  • Format/Info                              : Audio Coding 3
  • Codec ID                                 : A_AC3
  • Duration                                 : 2 h 10 min
  • Bit rate mode                            : Constant
  • Bit rate                                 : 640 kb/s
  • Channel(s)                               : 6 channels
  • Channel positions                        : Front: L C R, Side: L R, LFE
  • Sampling rate                            : 48.0 kHz
  • Frame rate                               : 31.250 FPS (1536 SPF)
  • Bit depth                                : 16 bits
  • Compression mode                         : Lossy
  • Stream size                              : 597 MiB (1%)
  • Title                                    : Phantom.Thread.2017.2160p.BluRay.x265.10bit.SDR.DTS-X.7.1-SWTYBLZ
  • Language                                 : English
  • Service kind                             : Complete Main
  • Default                                  : No
  • Forced                                   : No
  • Text #1
  • ID                                       : 4
  • Format                                   : UTF-8
  • Codec ID                                 : S_TEXT/UTF8
  • Codec ID/Info                            : UTF-8 Plain Text
  • Duration                                 : 2 h 2 min
  • Bit rate                                 : 38 b/s
  • Count of elements                        : 1148
  • Stream size                              : 35.1 KiB (0%)
  • Title                                    : English-SRT
  • Language                                 : English
  • Default                                  : Yes
  • Forced                                   : No
  • Text #2
  • ID                                       : 5
  • Format                                   : PGS
  • Muxing mode                              : zlib
  • Codec ID                                 : S_HDMV/PGS
  • Codec ID/Info                            : Picture based subtitle format used on BDs/HD-DVDs
  • Duration                                 : 2 h 3 min
  • Bit rate                                 : 28.6 kb/s
  • Count of elements                        : 2562
  • Stream size                              : 25.4 MiB (0%)
  • Title                                    : English-PGS
  • Language                                 : English
  • Default                                  : No
  • Forced                                   : No
  • Text #3
  • ID                                       : 6
  • Format                                   : PGS
  • Muxing mode                              : zlib
  • Codec ID                                 : S_HDMV/PGS
  • Codec ID/Info                            : Picture based subtitle format used on BDs/HD-DVDs
  • Duration                                 : 2 h 10 min
  • Bit rate                                 : 20.1 kb/s
  • Count of elements                        : 2269
  • Stream size                              : 18.8 MiB (0%)
  • Title                                    : French-PGS
  • Language                                 : French
  • Default                                  : No
  • Forced                                   : No
  • Text #4
  • ID                                       : 7
  • Format                                   : PGS
  • Muxing mode                              : zlib
  • Codec ID                                 : S_HDMV/PGS
  • Codec ID/Info                            : Picture based subtitle format used on BDs/HD-DVDs
  • Duration                                 : 2 h 10 min
  • Bit rate                                 : 23.5 kb/s
  • Count of elements                        : 2585
  • Stream size                              : 22.0 MiB (0%)
  • Title                                    : Spanish-PGS
  • Language                                 : Spanish
  • Default                                  : No
  • Forced                                   : No
  • Menu
  • 00:00:00.000                             : en:Chapter 1
  • 00:06:09.702                             : en:Chapter 2
  • 00:11:29.730                             : en:Chapter 3
  • 00:16:16.225                             : en:Chapter 4
  • 00:24:24.421                             : en:Chapter 5
  • 00:31:26.509                             : en:Chapter 6
  • 00:36:21.679                             : en:Chapter 7
  • 00:40:13.869                             : en:Chapter 8
  • 00:44:48.394                             : en:Chapter 9
  • 00:48:09.720                             : en:Chapter 10
  • 00:56:54.744                             : en:Chapter 11
  • 01:02:38.713                             : en:Chapter 12
  • 01:11:14.019                             : en:Chapter 13
  • 01:21:19.457                             : en:Chapter 14
  • 01:25:56.734                             : en:Chapter 15
  • 01:35:07.868                             : en:Chapter 16
  • 01:37:44.942                             : en:Chapter 17
  • 01:42:28.100                             : en:Chapter 18
  • 01:48:40.096                             : en:Chapter 19
  • 01:59:58.816                             : en:Chapter 20

复制代码
魅影缝匠/霓裳魅影 Phantom.Thread.2017.2160p.BluRay.x265.10bit.SDR.DTS-X.7.1-SWTYBLZ 47.09GB-2.png 魅影缝匠/霓裳魅影 Phantom.Thread.2017.2160p.BluRay.x265.10bit.SDR.DTS-X.7.1-SWTYBLZ 47.09GB-3.png 魅影缝匠/霓裳魅影 Phantom.Thread.2017.2160p.BluRay.x265.10bit.SDR.DTS-X.7.1-SWTYBLZ 47.09GB-4.png 魅影缝匠/霓裳魅影 Phantom.Thread.2017.2160p.BluRay.x265.10bit.SDR.DTS-X.7.1-SWTYBLZ 47.09GB-5.png 魅影缝匠/霓裳魅影 Phantom.Thread.2017.2160p.BluRay.x265.10bit.SDR.DTS-X.7.1-SWTYBLZ 47.09GB-6.png 魅影缝匠/霓裳魅影 Phantom.Thread.2017.2160p.BluRay.x265.10bit.SDR.DTS-X.7.1-SWTYBLZ 47.09GB-7.png






Phantom.Thread.2017.2160p.BluRay.x265.10bit.SDR.DTS-X.7.1-SWTYBLZ.torrent (118.34 KB, 下载次数: 23)

特别声明:本站所有资源均由网上收集而来,版权归原影音公司所有,如果侵犯了你的权益,请通知我们,我们会及时删除侵权内容.

免费下载本站所有资源---点这里
迅雷 应版权方要求,文件无法下载的解决办法---点这里
回复

使用道具 举报

签到天数: 118 天

[LV.6]常住居民II

发表于 2018-5-14 22:08:30 | 显示全部楼层
真是难得给力的帖子啊。
免费下载本站所有资源---点这里
迅雷 应版权方要求,文件无法下载的解决办法---点这里
回复 支持 反对

使用道具 举报

签到天数: 45 天

[LV.5]常住居民I

发表于 2018-5-14 22:16:16 | 显示全部楼层
强烈支持楼主ing……
[发帖际遇]: 一个袋子砸在了 hstk 头上,hstk 赚了 2 蓝光币. 幸运榜 / 衰神榜
免费下载本站所有资源---点这里
迅雷 应版权方要求,文件无法下载的解决办法---点这里
回复 支持 反对

使用道具 举报

签到天数: 5 天

[LV.2]偶尔看看I

发表于 2018-5-14 22:42:51 | 显示全部楼层
非常感谢!66666
免费下载本站所有资源---点这里
迅雷 应版权方要求,文件无法下载的解决办法---点这里
回复 支持 反对

使用道具 举报

签到天数: 1 天

[LV.1]初来乍到

发表于 2018-5-14 23:11:35 | 显示全部楼层
[发帖际遇]: 一个袋子砸在了 ghdwghdw 头上,ghdwghdw 赚了 3 蓝光币. 幸运榜 / 衰神榜
免费下载本站所有资源---点这里
迅雷 应版权方要求,文件无法下载的解决办法---点这里
回复

使用道具 举报

该用户从未签到

发表于 2018-5-14 23:24:08 | 显示全部楼层
很好的东东
免费下载本站所有资源---点这里
迅雷 应版权方要求,文件无法下载的解决办法---点这里
回复 支持 反对

使用道具 举报

签到天数: 1 天

[LV.1]初来乍到

发表于 2018-5-14 23:32:35 | 显示全部楼层
大大说的和吉安市
[发帖际遇]: 一个袋子砸在了 LEILEILEI磊 头上,LEILEILEI磊 赚了 2 蓝光币. 幸运榜 / 衰神榜
免费下载本站所有资源---点这里
迅雷 应版权方要求,文件无法下载的解决办法---点这里
回复 支持 反对

使用道具 举报

签到天数: 1 天

[LV.1]初来乍到

发表于 2018-5-14 23:33:36 | 显示全部楼层
大声道撒大所
[发帖际遇]: LEILEILEI磊 乐于助人,奖励 2 蓝光币. 幸运榜 / 衰神榜
免费下载本站所有资源---点这里
迅雷 应版权方要求,文件无法下载的解决办法---点这里
回复 支持 反对

使用道具 举报

签到天数: 5 天

[LV.2]偶尔看看I

发表于 2018-5-15 05:44:51 | 显示全部楼层
激动人心,无法言表!
免费下载本站所有资源---点这里
迅雷 应版权方要求,文件无法下载的解决办法---点这里
回复 支持 反对

使用道具 举报

该用户从未签到

发表于 2018-5-15 08:27:49 | 显示全部楼层
好好好好好好好好好好
免费下载本站所有资源---点这里
迅雷 应版权方要求,文件无法下载的解决办法---点这里
回复 支持 反对

使用道具 举报

点击按钮快速添加回复内容: 支持 高兴 激动 给力 加油 淡定 生气 回帖 路过 感动 感恩
您需要登录后才可以回帖 登录 | 立即加入

本版积分规则

现在加入蓝光电影网,注册一个账号

QQ| 手机版|小黑屋| 蓝光电影网 |

Copyright © 2001-2015 Comsenz Inc.  Template by 蓝光电影论坛 All Rights Reserved.

Powered by 高清电影网 X3.2
特别声明:本站所有资源均由网上收集而来,版权归原影音公司所有,如果侵犯了你的权益,请通知我们,我们会及时删除侵权内容.

快速回复 返回顶部 返回列表