找回密码

蓝光电影网

查看: 630|回复: 61

源代码/启动原始码 Source.Code.2011.2160p.BluRay.x265.10bit.SDR.DTS-HD.MA.TrueHD.7.1.Atmos-SWTYBLZ 35.08GB

  [复制链接]

 成长值: 15100

签到天数: 277 天

[LV.8]以坛为家I

发表于 2018-5-14 10:09:35 | 显示全部楼层 |阅读模式

马上注册,获取最新影视资讯,享用更多功能,让你轻松玩转蓝光电影网。

您需要 登录 才可以下载或查看,没有帐号?立即加入

x
源代码/启动原始码 Source.Code.2011.2160p.BluRay.x265.10bit.SDR.DTS-HD.MA.TrueHD.7.1.Atmos-SWTYBLZ 35.08GB-1.jpg
◎译  名 源代码/启动原始码(台)/危机解密(港)
◎片  名 Source Code
◎年  代 2011
◎产  地 美国/加拿大
◎类  别 科幻/悬疑/惊悚
◎语  言 英语
◎上映日期 2011-03-11(西南偏南电影节)/2011-04-01(美国)/2011-08-30(中国大陆)
◎IMDb评分  7.5/10 from 429,503 users
◎IMDb链接  https://www.imdb.com/title/tt0945513/
◎豆瓣评分 8.3/10 from 426,213 users
◎豆瓣链接 https://movie.douban.com/subject/3075287/
◎片  长 93分钟
◎导  演 邓肯·琼斯 Duncan Jones
◎主  演 杰克·吉伦哈尔 Jake Gyllenhaal
      维拉·法米加 Vera Farmiga
      米歇尔·莫娜汉 Michelle Monaghan
      杰弗里·怀特 Jeffrey Wright
      拉塞尔·皮特斯 Russell Peters
      詹姆斯·A·伍兹 James A. Woods
      迈克尔·阿登 Michael Arden
      乔·柯布登  Joe Cobden
      卡斯·安瓦尔 Cas Anvar

◎简  介

  在阿富汗执行任务的美国空军飞行员科特史蒂文斯上尉(杰克·吉伦哈尔 Jake Gyllenhaal 饰)突然惊醒,发现自己在一辆高速行驶的列车上,而他的身边坐着一个素不相识的女子克里斯蒂安(米歇尔·莫娜汉 Michelle Monaghan 饰)正在与自己讲话。科尔不知自己为什么会在这辆车上,而且他发现自己居然是以另一个人的身份存在,正当他迷惑不解的时候,列车上忽然发生爆炸……
  科特又一次惊醒,发现自己身处一个密闭的太空仓里,有一位女军官古德温(维拉·法米加 Vera Farmiga 饰)正在通过视频和自己对话,并要求自己报告列车上发生的事情。一头雾水的科特还没搞明白是怎么回事时,他又一次被送上那辆列车。这次之后,科特终于明白自己在执行一件任务,负责调察芝加哥火车爆炸案找到恐怖份子并查出他的下一个目标。科特被一次又一次的送上那辆高速列车,每次只有八分钟的时间调察,调察过程中,科特发现自己已在一周前去世,原来他正在参与是一项“脑波原代码”的秘密任务,这项任务通过已经死亡的科特尚未完全死亡的脑细胞影像来还原事件,调查事情的真相。最终,科特顺利完成了任务,但是他却决定再一次返回列车,拯救列车上那些无辜的生命……

◎获奖情况

  第2届豆瓣电影鑫像奖  (2012)
  鑫豆单元 最佳影片(外语)(提名)
  鑫豆单元 最佳导演(外语)(提名) 邓肯·琼斯
  • Video
  • ID                                       : 1
  • Format                                   : HEVC
  • Format/Info                              : High Efficiency Video Coding
  • Format profile                           : Main 10@L5.1@High
  • Codec ID                                 : V_MPEGH/ISO/HEVC
  • Duration                                 : 1 h 33 min
  • Bit rate                                 : 44.6 Mb/s
  • Width                                    : 3 840 pixels
  • Height                                   : 2 076 pixels
  • Display aspect ratio                     : 1.85:1
  • Frame rate mode                          : Constant
  • Frame rate                               : 23.976 (24000/1001) FPS
  • Color space                              : YUV
  • Chroma subsampling                       : 4:2:0
  • Bit depth                                : 10 bits
  • Bits/(Pixel*Frame)                       : 0.233
  • Stream size                              : 29.1 GiB (83%)
  • Title                                    : Source.Code.2011.2160p.BluRay.x265.10bit.SDR.DTS-HD.MA.TrueHD.7.1.Atmos-SWTYBLZ
  • Writing library                          : x265 2.5+4-b4a5bcfe29c7:[Windows][GCC 4.9.3][64 bit] 10bit
  • Encoding settings                        : cpuid=1173503 / frame-threads=16 / numa-pools=20 / wpp / no-pmode / no-pme / no-psnr / no-ssim / log-level=2 / input-csp=1 / input-res=3840x2076 / interlace=0 / total-frames=0 / level-idc=51 / high-tier=1 / uhd-bd=0 / ref=3 / no-allow-non-conformance / repeat-headers / annexb / aud / hrd / info / hash=0 / no-temporal-layers / no-open-gop / min-keyint=1 / keyint=24 / bframes=4 / b-adapt=2 / b-pyramid / bframe-bias=0 / rc-lookahead=25 / lookahead-slices=4 / scenecut=40 / no-intra-refresh / ctu=64 / min-cu-size=8 / no-rect / no-amp / max-tu-size=32 / tu-inter-depth=1 / tu-intra-depth=1 / limit-tu=0 / rdoq-level=0 / dynamic-rd=0.00 / no-ssim-rd / signhide / no-tskip / nr-intra=0 / nr-inter=0 / no-constrained-intra / strong-intra-smoothing / max-merge=2 / limit-refs=3 / no-limit-modes / me=1 / subme=2 / merange=57 / temporal-mvp / weightp / no-weightb / no-analyze-src-pics / deblock=0:0 / no-sao / no-sao-non-deblock / rd=3 / no-early-skip / rskip / no-fast-intra / no-tskip-fast / no-cu-lossless / no-b-intra / rdpenalty=0 / psy-rd=2.00 / psy-rdoq=0.00 / no-rd-refine / analysis-reuse-mode=0 / no-lossless / cbqpoffs=0 / crqpoffs=0 / rc=crf / crf=16.0 / qcomp=0.60 / qpstep=4 / stats-write=0 / stats-read=0 / vbv-maxrate=160000 / vbv-bufsize=160000 / vbv-init=0.9 / crf-max=0.0 / crf-min=0.0 / ipratio=1.40 / pbratio=1.30 / aq-mode=1 / aq-strength=1.00 / cutree / zone-count=0 / no-strict-cbr / qg-size=32 / no-rc-grain / qpmax=69 / qpmin=0 / no-const-vbv / sar=1 / overscan=0 / videoformat=5 / range=0 / colorprim=2 / transfer=2 / colormatrix=2 / chromaloc=0 / display-window=0 / max-cll=0,0 / min-luma=0 / max-luma=1023 / log2-max-poc-lsb=8 / vui-timing-info / vui-hrd-info / slices=1 / opt-qp-pps / opt-ref-list-length-pps / no-multi-pass-opt-rps / scenecut-bias=0.05 / no-opt-cu-delta-qp / no-aq-motion / no-hdr / no-hdr-opt / no-dhdr10-opt / analysis-reuse-level=5 / scale-factor=0 / refine-intra=0 / refine-inter=0 / refine-mv=0 / no-limit-sao / ctu-info=0
  • Default                                  : Yes
  • Forced                                   : No
  • Audio #1
  • ID                                       : 2
  • Format                                   : TrueHD
  • Format profile                           : TrueHD+Atmos / TrueHD
  • Codec ID                                 : A_TRUEHD
  • Duration                                 : 1 h 33 min
  • Bit rate mode                            : Variable
  • Bit rate                                 : 4 673 kb/s
  • Maximum bit rate                         : 8 805 kb/s
  • Channel(s)                               : Object Based / 8 channels
  • Channel positions                        : Object Based / Front: L C R, Side: L R, Back: L R, LFE
  • Sampling rate                            :  / 48.0 kHz
  • Frame rate                               : 1 200.000 FPS (40 SPF)
  • Compression mode                         : Lossless
  • Delay relative to video                  : 1 ms
  • Stream size                              : 3.04 GiB (9%)
  • Title                                    : Source.Code.2011.2160p.BluRay.x265.10bit.SDR.DTS-HD.MA.TrueHD.7.1.Atmos-SWTYBLZ
  • Language                                 : English
  • Default                                  : Yes
  • Forced                                   : No
  • Audio #2
  • ID                                       : 3
  • Format                                   : DTS
  • Format/Info                              : Digital Theater Systems
  • Format profile                           : MA / Core
  • Codec ID                                 : A_DTS
  • Duration                                 : 1 h 33 min
  • Bit rate mode                            : Variable / Constant
  • Bit rate                                 : 3 722 kb/s / 1 509 kb/s
  • Channel(s)                               : 8 channels / 6 channels
  • Channel positions                        : Front: L C R, Side: L R, Back: L R, LFE / Front: L C R, Side: L R, LFE
  • Sampling rate                            : 48.0 kHz
  • Frame rate                               : 93.750 FPS (512 SPF)
  • Bit depth                                : 24 bits
  • Compression mode                         : Lossless / Lossy
  • Stream size                              : 2.42 GiB (7%)
  • Title                                    : Source.Code.2011.2160p.BluRay.x265.10bit.SDR.DTS-HD.MA.TrueHD.7.1.Atmos-SWTYBLZ
  • Default                                  : No
  • Forced                                   : No
  • Audio #3
  • ID                                       : 4
  • Format                                   : AC-3
  • Format/Info                              : Audio Coding 3
  • Codec ID                                 : A_AC3
  • Duration                                 : 1 h 33 min
  • Bit rate mode                            : Constant
  • Bit rate                                 : 448 kb/s
  • Channel(s)                               : 6 channels
  • Channel positions                        : Front: L C R, Side: L R, LFE
  • Sampling rate                            : 48.0 kHz
  • Frame rate                               : 31.250 FPS (1536 SPF)
  • Bit depth                                : 16 bits
  • Compression mode                         : Lossy
  • Delay relative to video                  : 1 ms
  • Stream size                              : 299 MiB (1%)
  • Title                                    : Source.Code.2011.2160p.BluRay.x265.10bit.SDR.DTS-HD.MA.TrueHD.7.1.Atmos-SWTYBLZ
  • Language                                 : English
  • Service kind                             : Complete Main
  • Default                                  : No
  • Forced                                   : No
  • Text #1
  • ID                                       : 5
  • Format                                   : UTF-8
  • Codec ID                                 : S_TEXT/UTF8
  • Codec ID/Info                            : UTF-8 Plain Text
  • Duration                                 : 1 h 24 min
  • Bit rate                                 : 65 b/s
  • Count of elements                        : 1157
  • Stream size                              : 40.6 KiB (0%)
  • Title                                    : English-SRT
  • Language                                 : English
  • Default                                  : Yes
  • Forced                                   : No
  • Text #2
  • ID                                       : 6
  • Format                                   : PGS
  • Muxing mode                              : zlib
  • Codec ID                                 : S_HDMV/PGS
  • Codec ID/Info                            : Picture based subtitle format used on BDs/HD-DVDs
  • Duration                                 : 1 h 32 min
  • Bit rate                                 : 43.7 kb/s
  • Count of elements                        : 2560
  • Stream size                              : 28.9 MiB (0%)
  • Title                                    : English-PGS
  • Language                                 : English
  • Default                                  : No
  • Forced                                   : No
  • Text #3
  • ID                                       : 7
  • Format                                   : PGS
  • Muxing mode                              : zlib
  • Codec ID                                 : S_HDMV/PGS
  • Codec ID/Info                            : Picture based subtitle format used on BDs/HD-DVDs
  • Duration                                 : 1 h 24 min
  • Bit rate                                 : 38.6 kb/s
  • Count of elements                        : 2298
  • Stream size                              : 23.3 MiB (0%)
  • Title                                    : Spanish-PGS
  • Language                                 : Spanish
  • Default                                  : No
  • Forced                                   : No
  • Menu
  • 00:00:00.000                             : en:Chapter 1
  • 00:06:52.412                             : en:Chapter 2
  • 00:11:03.079                             : en:Chapter 3
  • 00:17:19.997                             : en:Chapter 4
  • 00:21:05.681                             : en:Chapter 5
  • 00:28:36.756                             : en:Chapter 6
  • 00:31:50.366                             : en:Chapter 7
  • 00:36:19.886                             : en:Chapter 8
  • 00:41:34.700                             : en:Chapter 9
  • 00:47:21.839                             : en:Chapter 10
  • 00:52:30.814                             : en:Chapter 11
  • 00:54:32.686                             : en:Chapter 12
  • 00:58:01.227                             : en:Chapter 13
  • 01:03:02.278                             : en:Chapter 14
  • 01:09:40.009                             : en:Chapter 15
  • 01:15:12.049                             : en:Chapter 16
  • 01:21:49.654                             : en:Chapter 17
  • 01:24:41.117                             : en:Chapter 18

复制代码
源代码/启动原始码 Source.Code.2011.2160p.BluRay.x265.10bit.SDR.DTS-HD.MA.TrueHD.7.1.Atmos-SWTYBLZ 35.08GB-2.png 源代码/启动原始码 Source.Code.2011.2160p.BluRay.x265.10bit.SDR.DTS-HD.MA.TrueHD.7.1.Atmos-SWTYBLZ 35.08GB-3.png 源代码/启动原始码 Source.Code.2011.2160p.BluRay.x265.10bit.SDR.DTS-HD.MA.TrueHD.7.1.Atmos-SWTYBLZ 35.08GB-4.png 源代码/启动原始码 Source.Code.2011.2160p.BluRay.x265.10bit.SDR.DTS-HD.MA.TrueHD.7.1.Atmos-SWTYBLZ 35.08GB-5.png 源代码/启动原始码 Source.Code.2011.2160p.BluRay.x265.10bit.SDR.DTS-HD.MA.TrueHD.7.1.Atmos-SWTYBLZ 35.08GB-6.png 源代码/启动原始码 Source.Code.2011.2160p.BluRay.x265.10bit.SDR.DTS-HD.MA.TrueHD.7.1.Atmos-SWTYBLZ 35.08GB-7.png





Source.Code.2011.2160p.BluRay.x265.10bit.SDR.DTS-HD.MA.TrueHD.7.1.Atmos-SWTYBLZ.torrent (88.35 KB, 下载次数: 63)

特别声明:本站所有资源均由网上收集而来,版权归原影音公司所有,如果侵犯了你的权益,请通知我们,我们会及时删除侵权内容.

免费下载本站所有资源---点这里
迅雷 应版权方要求,文件无法下载的解决办法---点这里
回复

使用道具 举报

签到天数: 33 天

[LV.5]常住居民I

发表于 2018-5-14 10:19:17 | 显示全部楼层
真是难得给力的帖子啊。
免费下载本站所有资源---点这里
迅雷 应版权方要求,文件无法下载的解决办法---点这里
回复 支持 反对

使用道具 举报

签到天数: 25 天

[LV.4]偶尔看看III

发表于 2018-5-14 11:07:05 | 显示全部楼层
感谢楼主的无私奉献
[发帖际遇]: MoonRiver 发帖时在路边捡到 1 蓝光币,偷偷放进了口袋. 幸运榜 / 衰神榜
免费下载本站所有资源---点这里
迅雷 应版权方要求,文件无法下载的解决办法---点这里
回复 支持 反对

使用道具 举报

签到天数: 1 天

[LV.1]初来乍到

发表于 2018-5-14 12:07:49 | 显示全部楼层
6666666666666
免费下载本站所有资源---点这里
迅雷 应版权方要求,文件无法下载的解决办法---点这里
回复 支持 反对

使用道具 举报

签到天数: 27 天

[LV.4]偶尔看看III

发表于 2018-5-14 12:22:57 | 显示全部楼层
太生气了,无法HOLD啦 >_<......
免费下载本站所有资源---点这里
迅雷 应版权方要求,文件无法下载的解决办法---点这里
回复 支持 反对

使用道具 举报

 成长值: 280

该用户从未签到

发表于 2018-5-14 12:28:22 | 显示全部楼层
免费下载本站所有资源---点这里
迅雷 应版权方要求,文件无法下载的解决办法---点这里
回复 支持 反对

使用道具 举报

签到天数: 1 天

[LV.1]初来乍到

发表于 2018-5-14 13:03:38 | 显示全部楼层
好资源 谢谢楼主
[发帖际遇]: 一个袋子砸在了 Caroline 头上,Caroline 赚了 3 蓝光币. 幸运榜 / 衰神榜
免费下载本站所有资源---点这里
迅雷 应版权方要求,文件无法下载的解决办法---点这里
回复 支持 反对

使用道具 举报

签到天数: 40 天

[LV.5]常住居民I

发表于 2018-5-14 13:25:07 | 显示全部楼层
强烈支持楼主ing……
免费下载本站所有资源---点这里
迅雷 应版权方要求,文件无法下载的解决办法---点这里
回复 支持 反对

使用道具 举报

签到天数: 10 天

[LV.3]偶尔看看II

发表于 2018-5-14 13:42:19 | 显示全部楼层
科幻哦,支持一下
免费下载本站所有资源---点这里
迅雷 应版权方要求,文件无法下载的解决办法---点这里
回复 支持 反对

使用道具 举报

签到天数: 37 天

[LV.5]常住居民I

发表于 2018-5-14 14:23:07 | 显示全部楼层
强烈支持楼主ing……
[发帖际遇]: hngxq1987 乐于助人,奖励 3 蓝光币. 幸运榜 / 衰神榜
免费下载本站所有资源---点这里
迅雷 应版权方要求,文件无法下载的解决办法---点这里
回复 支持 反对

使用道具 举报

点击按钮快速添加回复内容: 支持 高兴 激动 给力 加油 淡定 生气 回帖 路过 感动 感恩
您需要登录后才可以回帖 登录 | 立即加入

本版积分规则

现在加入蓝光电影网,注册一个账号

QQ| 手机版|小黑屋| 蓝光电影网 |

Copyright © 2001-2015 Comsenz Inc.  Template by 蓝光电影论坛 All Rights Reserved.

Powered by 高清电影网 X3.2
特别声明:本站所有资源均由网上收集而来,版权归原影音公司所有,如果侵犯了你的权益,请通知我们,我们会及时删除侵权内容.

快速回复 返回顶部 返回列表