找回密码

蓝光电影网

查看: 3345|回复: 126

角斗士/帝国骄雄 Gladiator.2000.EXTENDED.2160p.BluRay.x265.10bit.SDR.DTS-X.7.1-SWTYBLZ 40.61GB

  [复制链接]

 成长值: 17320

签到天数: 403 天

[LV.9]以坛为家II

发表于 2018-4-30 16:18:18 | 显示全部楼层 |阅读模式

马上注册,获取最新影视资讯,享用更多功能,让你轻松玩转蓝光电影网。

您需要 登录 才可以下载或查看,没有帐号?立即加入

x
132241xwiaew0ewwl0wepi.jpg
◎译  名 角斗士/帝国骄雄(港)/神鬼战士(台)/鬼神战士
◎片  名 Gladiator
◎年  代 2000
◎产  地 英国/美国
◎类  别 剧情/动作/历史/冒险
◎语  言 英语
◎上映日期 2000-05-05
◎IMDb评分  8.5/10 from 1,127,296 users
◎IMDb链接  http://www.imdb.com/title/tt0172495/
◎豆瓣评分 8.4/10 from 128,024 users
◎豆瓣链接 https://movie.douban.com/subject/1293530/
◎片  长 155分钟/171分钟(加长版)
◎导  演 雷德利·斯科特 Ridley Scott
◎主  演 罗素·克劳 Russell Crowe
      杰昆·菲尼克斯 Joaquin Phoenix
      康妮·尼尔森 Connie Nielsen
      理查德·哈里斯 Richard Harris
      杰曼·翰苏 Djimon Hounsou
      奥列佛·里德 Oliver Reed
      德里克·雅各比 Derek Jacobi

◎简  介

  马克西·蒙斯(罗素·克劳 饰)是罗马帝国战功显赫,受人拥戴的大将军。老国王马库斯·奥利利乌斯(理查德·哈里斯 饰)对大将军赏识有加,有意加冕于他。老国王对将军这种超越亲情的宠爱自然招来太子康莫迪乌斯的妒忌与不安,太子伺机杀害父亲,抢先登上王位,并马上下令诛杀大将军一家。
  马克西蒙斯死里逃生躲过暴君的魔爪,可是他所有的家人都未能幸免于难,返回家园,他只看到满目疮痍的破败景象。走投无路的马克西蒙斯只能投身为奴,从昔日的大将军沦为一名角斗士,在血腥厮杀中苟且求生。
  凭借英勇的气魄和高超的武艺,马克西蒙斯渐渐脱颖而出,晋级到罗马的大角斗场。这一次,他的剑直指暴君康莫迪乌斯,失去亲人的痛苦,沦为奴隶的屈辱,在马克西蒙斯的内心燃起了熊熊怒火。

◎获奖情况

  第73届奥斯卡金像奖  (2001)
  最佳影片 道格拉斯·威克 / 布兰科·拉斯蒂格 / 大卫·弗兰佐尼
  最佳导演(提名) 雷德利·斯科特
  最佳男主角 罗素·克劳
  最佳男配角(提名) 杰昆·菲尼克斯
  最佳原创剧本(提名) 大卫·弗兰佐尼 / 约翰·洛根 / 威廉姆·尼克尔森
  最佳摄影(提名) 约翰·马西森
  最佳剪辑(提名) 彼得罗·斯卡利亚
  最佳视觉效果 约翰·尼尔森 / 尼尔·科博尔德 / 蒂姆·伯克 / 罗布·哈维
  最佳音响 斯科特·米兰 / 鲍勃·贝默尔 / Ken Weston
  最佳艺术指导(提名) Crispian Sallis / 阿瑟·马克斯
  最佳服装设计 Janty Yates
  最佳原创配乐(提名) 汉斯·季默

  第54届英国电影学院奖  (2001)
  电影奖 最佳影片 道格拉斯·威克 / 布兰科·拉斯蒂格 / 大卫·弗兰佐尼
  电影奖 最佳导演(提名) 雷德利·斯科特
  电影奖 最佳男主角(提名) 罗素·克劳
  电影奖 最佳男配角(提名) 杰昆·菲尼克斯 / 奥列佛·里德
  电影奖 最佳原创剧本(提名) 约翰·洛根 / 威廉姆·尼克尔森 / 大卫·弗兰佐尼
  电影奖 最佳摄影 约翰·马西森
  电影奖 最佳剪辑 彼得罗·斯卡利亚
  电影奖 最佳化妆/发型(提名) 格拉汉姆·约翰斯通 / Paul Engelen
  电影奖 最佳服装设计(提名) Janty Yates
  电影奖 最佳艺术指导 阿瑟·马克斯
  电影奖 最佳特殊视觉效果(提名) 罗布·哈维 / 约翰·尼尔森 / 蒂姆·伯克 / 尼尔·科博尔德
  电影奖 最佳原创音乐(提名) 汉斯·季默 / 丽莎·杰勒德
  电影奖 最佳音效(提名) 斯科特·米兰 / Per Hallberg / 鲍勃·贝默尔 / Ken Weston
  电影奖 观众选择奖

  第24届日本电影学院奖  (2001)
  最佳外语片(提名)

  第1届美国电影学会奖  (2000)
  年度佳片
  • Video
  • ID                                       : 1
  • Format                                   : HEVC
  • Format/Info                              : High Efficiency Video Coding
  • Format profile                           : Main 10@L5.1@High
  • Codec ID                                 : V_MPEGH/ISO/HEVC
  • Duration                                 : 2 h 50 min
  • Bit rate                                 : 29.3 Mb/s
  • Width                                    : 3 840 pixels
  • Height                                   : 1 600 pixels
  • Display aspect ratio                     : 2.40:1
  • Frame rate mode                          : Constant
  • Frame rate                               : 23.976 (24000/1001) FPS
  • Color space                              : YUV
  • Chroma subsampling                       : 4:2:0
  • Bit depth                                : 10 bits
  • Bits/(Pixel*Frame)                       : 0.199
  • Stream size                              : 35.0 GiB (87%)
  • Title                                    : Gladiator.2000.EXTENDED.2160p.BluRay.x265.10bit.SDR.DTS-X.7.1-SWTYBLZ
  • Writing library                          : x265 2.5+4-b4a5bcfe29c7:[Windows][GCC 4.9.3][64 bit] 10bit
  • Encoding settings                        : cpuid=1173503 / frame-threads=16 / numa-pools=20 / wpp / no-pmode / no-pme / no-psnr / no-ssim / log-level=2 / input-csp=1 / input-res=3840x1600 / interlace=0 / total-frames=0 / level-idc=51 / high-tier=1 / uhd-bd=0 / ref=3 / no-allow-non-conformance / repeat-headers / annexb / aud / hrd / info / hash=0 / no-temporal-layers / no-open-gop / min-keyint=1 / keyint=24 / bframes=4 / b-adapt=2 / b-pyramid / bframe-bias=0 / rc-lookahead=25 / lookahead-slices=4 / scenecut=40 / no-intra-refresh / ctu=64 / min-cu-size=8 / no-rect / no-amp / max-tu-size=32 / tu-inter-depth=1 / tu-intra-depth=1 / limit-tu=0 / rdoq-level=0 / dynamic-rd=0.00 / no-ssim-rd / signhide / no-tskip / nr-intra=0 / nr-inter=0 / no-constrained-intra / strong-intra-smoothing / max-merge=2 / limit-refs=3 / no-limit-modes / me=1 / subme=2 / merange=57 / temporal-mvp / weightp / no-weightb / no-analyze-src-pics / deblock=0:0 / no-sao / no-sao-non-deblock / rd=3 / no-early-skip / rskip / no-fast-intra / no-tskip-fast / no-cu-lossless / no-b-intra / rdpenalty=0 / psy-rd=2.00 / psy-rdoq=0.00 / no-rd-refine / analysis-reuse-mode=0 / no-lossless / cbqpoffs=0 / crqpoffs=0 / rc=crf / crf=18.0 / qcomp=0.60 / qpstep=4 / stats-write=0 / stats-read=0 / vbv-maxrate=160000 / vbv-bufsize=160000 / vbv-init=0.9 / crf-max=0.0 / crf-min=0.0 / ipratio=1.40 / pbratio=1.30 / aq-mode=1 / aq-strength=1.00 / cutree / zone-count=0 / no-strict-cbr / qg-size=32 / no-rc-grain / qpmax=69 / qpmin=0 / no-const-vbv / sar=1 / overscan=0 / videoformat=5 / range=0 / colorprim=2 / transfer=2 / colormatrix=2 / chromaloc=0 / display-window=0 / max-cll=0,0 / min-luma=0 / max-luma=1023 / log2-max-poc-lsb=8 / vui-timing-info / vui-hrd-info / slices=1 / opt-qp-pps / opt-ref-list-length-pps / no-multi-pass-opt-rps / scenecut-bias=0.05 / no-opt-cu-delta-qp / no-aq-motion / no-hdr / no-hdr-opt / no-dhdr10-opt / analysis-reuse-level=5 / scale-factor=0 / refine-intra=0 / refine-inter=0 / refine-mv=0 / no-limit-sao / ctu-info=0
  • Default                                  : Yes
  • Forced                                   : No
  • Audio #1
  • ID                                       : 2
  • Format                                   : DTS
  • Format/Info                              : Digital Theater Systems
  • Format profile                           : X / MA / Core
  • Codec ID                                 : A_DTS
  • Duration                                 : 2 h 50 min
  • Bit rate mode                            : Variable / Variable / Constant
  • Bit rate                                 : 3 840 kb/s / 3 840 kb/s / 1 509 kb/s
  • Channel(s)                               : Object Based / 8 channels / 6 channels
  • Channel positions                        : Object Based / Front: L C R, Side: L R, Back: L R, LFE / Front: L C R, Side: L R, LFE
  • Sampling rate                            :  / 48.0 kHz / 48.0 kHz
  • Frame rate                               : 93.750 FPS (512 SPF)
  • Bit depth                                :  / 24 bits / 24 bits
  • Compression mode                         :  / Lossless / Lossy
  • Stream size                              : 4.56 GiB (11%)
  • Title                                    : Gladiator.2000.EXTENDED.2160p.BluRay.x265.10bit.SDR.DTS-X.7.1-SWTYBLZ
  • Language                                 : English
  • Default                                  : Yes
  • Forced                                   : No
  • Audio #2
  • ID                                       : 3
  • Format                                   : AC-3
  • Format/Info                              : Audio Coding 3
  • Codec ID                                 : A_AC3
  • Duration                                 : 2 h 50 min
  • Bit rate mode                            : Constant
  • Bit rate                                 : 640 kb/s
  • Channel(s)                               : 6 channels
  • Channel positions                        : Front: L C R, Side: L R, LFE
  • Sampling rate                            : 48.0 kHz
  • Frame rate                               : 31.250 FPS (1536 SPF)
  • Bit depth                                : 16 bits
  • Compression mode                         : Lossy
  • Stream size                              : 783 MiB (2%)
  • Title                                    : Gladiator.2000.EXTENDED.2160p.BluRay.x265.10bit.SDR.DTS-X.7.1-SWTYBLZ
  • Language                                 : English
  • Service kind                             : Complete Main
  • Default                                  : No
  • Forced                                   : No
  • Text #1
  • ID                                       : 4
  • Format                                   : UTF-8
  • Codec ID                                 : S_TEXT/UTF8
  • Codec ID/Info                            : UTF-8 Plain Text
  • Duration                                 : 2 h 40 min
  • Bit rate                                 : 34 b/s
  • Count of elements                        : 1364
  • Stream size                              : 40.9 KiB (0%)
  • Title                                    : English-SRT
  • Language                                 : English
  • Default                                  : Yes
  • Forced                                   : No
  • Text #2
  • ID                                       : 5
  • Format                                   : PGS
  • Muxing mode                              : zlib
  • Codec ID                                 : S_HDMV/PGS
  • Codec ID/Info                            : Picture based subtitle format used on BDs/HD-DVDs
  • Duration                                 : 2 h 42 min
  • Bit rate                                 : 24.0 kb/s
  • Count of elements                        : 2909
  • Stream size                              : 27.8 MiB (0%)
  • Title                                    : English-PGS
  • Language                                 : English
  • Default                                  : No
  • Forced                                   : No
  • Text #3
  • ID                                       : 6
  • Format                                   : PGS
  • Muxing mode                              : zlib
  • Codec ID                                 : S_HDMV/PGS
  • Codec ID/Info                            : Picture based subtitle format used on BDs/HD-DVDs
  • Duration                                 : 2 h 49 min
  • Bit rate                                 : 22.2 kb/s
  • Count of elements                        : 2707
  • Stream size                              : 26.9 MiB (0%)
  • Title                                    : French-PGS
  • Language                                 : French
  • Default                                  : No
  • Forced                                   : No
  • Text #4
  • ID                                       : 7
  • Format                                   : PGS
  • Muxing mode                              : zlib
  • Codec ID                                 : S_HDMV/PGS
  • Codec ID/Info                            : Picture based subtitle format used on BDs/HD-DVDs
  • Duration                                 : 2 h 49 min
  • Bit rate                                 : 19.7 kb/s
  • Count of elements                        : 2709
  • Stream size                              : 23.9 MiB (0%)
  • Title                                    : Dutch-PGS
  • Language                                 : Dutch
  • Default                                  : No
  • Forced                                   : No
  • Text #5
  • ID                                       : 8
  • Format                                   : PGS
  • Muxing mode                              : zlib
  • Codec ID                                 : S_HDMV/PGS
  • Codec ID/Info                            : Picture based subtitle format used on BDs/HD-DVDs
  • Duration                                 : 2 h 49 min
  • Bit rate                                 : 21.1 kb/s
  • Count of elements                        : 2707
  • Stream size                              : 25.7 MiB (0%)
  • Title                                    : Danish-PGS
  • Language                                 : Danish
  • Default                                  : No
  • Forced                                   : No
  • Text #6
  • ID                                       : 9
  • Format                                   : PGS
  • Muxing mode                              : zlib
  • Codec ID                                 : S_HDMV/PGS
  • Codec ID/Info                            : Picture based subtitle format used on BDs/HD-DVDs
  • Duration                                 : 2 h 49 min
  • Bit rate                                 : 20.8 kb/s
  • Count of elements                        : 2709
  • Stream size                              : 25.2 MiB (0%)
  • Title                                    : Finnish-PGS
  • Language                                 : Finnish
  • Default                                  : No
  • Forced                                   : No
  • Text #7
  • ID                                       : 10
  • Format                                   : PGS
  • Muxing mode                              : zlib
  • Codec ID                                 : S_HDMV/PGS
  • Codec ID/Info                            : Picture based subtitle format used on BDs/HD-DVDs
  • Duration                                 : 2 h 49 min
  • Bit rate                                 : 20.5 kb/s
  • Count of elements                        : 2711
  • Stream size                              : 24.9 MiB (0%)
  • Title                                    : Norwegian-PGS
  • Language                                 : Norwegian
  • Default                                  : No
  • Forced                                   : No
  • Text #8
  • ID                                       : 11
  • Format                                   : PGS
  • Muxing mode                              : zlib
  • Codec ID                                 : S_HDMV/PGS
  • Codec ID/Info                            : Picture based subtitle format used on BDs/HD-DVDs
  • Duration                                 : 2 h 49 min
  • Bit rate                                 : 20.7 kb/s
  • Count of elements                        : 2705
  • Stream size                              : 25.1 MiB (0%)
  • Title                                    : Swedish-PGS
  • Language                                 : Swedish
  • Default                                  : No
  • Forced                                   : No
  • Text #9
  • ID                                       : 12
  • Format                                   : PGS
  • Muxing mode                              : zlib
  • Codec ID                                 : S_HDMV/PGS
  • Codec ID/Info                            : Picture based subtitle format used on BDs/HD-DVDs
  • Duration                                 : 2 h 49 min
  • Bit rate                                 : 20.5 kb/s
  • Count of elements                        : 2707
  • Stream size                              : 24.9 MiB (0%)
  • Title                                    : Czech-PGS
  • Language                                 : Czech
  • Default                                  : No
  • Forced                                   : No
  • Text #10
  • ID                                       : 13
  • Format                                   : PGS
  • Muxing mode                              : zlib
  • Codec ID                                 : S_HDMV/PGS
  • Codec ID/Info                            : Picture based subtitle format used on BDs/HD-DVDs
  • Duration                                 : 2 h 49 min
  • Bit rate                                 : 23.7 kb/s
  • Count of elements                        : 2726
  • Stream size                              : 28.8 MiB (0%)
  • Title                                    : Greek-PGS
  • Language                                 : Greek
  • Default                                  : No
  • Forced                                   : No
  • Menu
  • 00:00:00.000                             : en:Chapter 1
  • 00:07:13.307                             : en:Chapter 2
  • 00:12:50.102                             : en:Chapter 3
  • 00:18:44.790                             : en:Chapter 4
  • 00:23:29.324                             : en:Chapter 5
  • 00:32:58.393                             : en:Chapter 6
  • 00:37:34.877                             : en:Chapter 7
  • 00:40:50.739                             : en:Chapter 8
  • 00:47:32.724                             : en:Chapter 9
  • 00:51:35.842                             : en:Chapter 10
  • 00:55:44.382                             : en:Chapter 11
  • 01:02:21.279                             : en:Chapter 12
  • 01:09:56.984                             : en:Chapter 13
  • 01:19:08.285                             : en:Chapter 14
  • 01:29:21.647                             : en:Chapter 15
  • 01:37:11.784                             : en:Chapter 16
  • 01:41:35.797                             : en:Chapter 17
  • 01:51:58.836                             : en:Chapter 18
  • 01:56:36.280                             : en:Chapter 19
  • 02:00:43.486                             : en:Chapter 20
  • 02:04:42.224                             : en:Chapter 21
  • 02:12:19.014                             : en:Chapter 22
  • 02:13:32.671                             : en:Chapter 23
  • 02:24:15.438                             : en:Chapter 24
  • 02:28:48.669                             : en:Chapter 25
  • 02:34:20.751                             : en:Chapter 26
  • 02:38:43.555                             : en:Chapter 27
  • 02:42:57.725                             : en:Chapter 28

复制代码
132242obb4kth9hh9rdssh.jpg 132242i0tysxtjgkj5t11g.jpg 132243xz7eytkdkckkk5z5.jpg 132243clt0v668ql65w0cg.jpg 132244w96r292czhblwbjm.jpg 132244ife2zunebfy3cxoo.jpg






Gladiator.2000.EXTENDED.2160p.BluRay.x265.10bit.SDR.DTS-X.7.1-SWTYBLZ.torrent (102.14 KB, 下载次数: 155)

特别声明:本站所有资源均由网上收集而来,版权归原影音公司所有,如果侵犯了你的权益,请通知我们,我们会及时删除侵权内容.

[发帖际遇]: 蓝光 乐于助人,奖励 3 蓝光币. 幸运榜 / 衰神榜
免费下载本站所有资源---点这里
迅雷 应版权方要求,文件无法下载的解决办法---点这里
回复

使用道具 举报

签到天数: 4 天

[LV.2]偶尔看看I

发表于 2018-4-30 17:27:45 | 显示全部楼层
好好片哦   快谢谢你
免费下载本站所有资源---点这里
迅雷 应版权方要求,文件无法下载的解决办法---点这里
回复 支持 反对

使用道具 举报

签到天数: 4 天

[LV.2]偶尔看看I

发表于 2018-4-30 17:30:13 | 显示全部楼层
为什么下载不了呢 还扣我的币
免费下载本站所有资源---点这里
迅雷 应版权方要求,文件无法下载的解决办法---点这里
回复 支持 反对

使用道具 举报

签到天数: 47 天

[LV.5]常住居民I

发表于 2018-4-30 17:55:18 | 显示全部楼层
感谢楼主分享
免费下载本站所有资源---点这里
迅雷 应版权方要求,文件无法下载的解决办法---点这里
回复 支持 反对

使用道具 举报

签到天数: 32 天

[LV.5]常住居民I

发表于 2018-4-30 18:04:26 | 显示全部楼层
感谢分享 很经典
[发帖际遇]: 加油 乐于助人,奖励 3 蓝光币. 幸运榜 / 衰神榜
免费下载本站所有资源---点这里
迅雷 应版权方要求,文件无法下载的解决办法---点这里
回复 支持 反对

使用道具 举报

签到天数: 1 天

[LV.1]初来乍到

发表于 2018-4-30 18:29:26 | 显示全部楼层
真棒真棒真棒~~~
[发帖际遇]: skylei5 乐于助人,奖励 2 蓝光币. 幸运榜 / 衰神榜
免费下载本站所有资源---点这里
迅雷 应版权方要求,文件无法下载的解决办法---点这里
回复 支持 反对

使用道具 举报

签到天数: 133 天

[LV.7]常住居民III

发表于 2018-4-30 18:38:11 | 显示全部楼层
免费下载本站所有资源---点这里
迅雷 应版权方要求,文件无法下载的解决办法---点这里
回复

使用道具 举报

签到天数: 2 天

[LV.1]初来乍到

发表于 2018-4-30 18:40:24 | 显示全部楼层
谢谢分享,支持一下!
[发帖际遇]: 一个袋子砸在了 alanwu79 头上,alanwu79 赚了 1 蓝光币. 幸运榜 / 衰神榜
免费下载本站所有资源---点这里
迅雷 应版权方要求,文件无法下载的解决办法---点这里
回复 支持 反对

使用道具 举报

签到天数: 7 天

[LV.3]偶尔看看II

发表于 2018-4-30 19:53:12 | 显示全部楼层

好东西,大家分享,赞
免费下载本站所有资源---点这里
迅雷 应版权方要求,文件无法下载的解决办法---点这里
回复 支持 反对

使用道具 举报

签到天数: 20 天

[LV.4]偶尔看看III

发表于 2018-4-30 20:18:25 | 显示全部楼层
这个还是炒鸡好看的。
免费下载本站所有资源---点这里
迅雷 应版权方要求,文件无法下载的解决办法---点这里
回复 支持 反对

使用道具 举报

点击按钮快速添加回复内容: 支持 高兴 激动 给力 加油 淡定 生气 回帖 路过 感动 感恩
您需要登录后才可以回帖 登录 | 立即加入

本版积分规则

现在加入蓝光电影网,注册一个账号

QQ| 手机版|小黑屋| 蓝光电影网 |

Copyright © 2001-2015 Comsenz Inc.  Template by 蓝光电影论坛 All Rights Reserved.

Powered by 高清电影网 X3.2
特别声明:本站所有资源均由网上收集而来,版权归原影音公司所有,如果侵犯了你的权益,请通知我们,我们会及时删除侵权内容.

快速回复 返回顶部 返回列表