找回密码

蓝光电影网

查看: 1086|回复: 95

角斗士/帝国骄雄 Gladiator.2000.EXTENDED.2160p.BluRay.x264.8bit.SDR.DTS-X.7.1-SWTYBLZ 43.58GB

  [复制链接]

 成长值: 15100

签到天数: 277 天

[LV.8]以坛为家I

发表于 2018-4-28 11:38:21 | 显示全部楼层 |阅读模式

马上注册,获取最新影视资讯,享用更多功能,让你轻松玩转蓝光电影网。

您需要 登录 才可以下载或查看,没有帐号?立即加入

x
001907garffcqrpw1fbuqc.jpg
◎译  名 角斗士/帝国骄雄(港)
◎片  名 Gladiator
◎年  代 2000
◎产  地 英国/美国
◎类  别 剧情/动作/历史/冒险
◎语  言 英语
◎上映日期 2000-05-05
◎IMDb评分  8.5/10 from 1,126,934 users
◎IMDb链接  http://www.imdb.com/title/tt0172495/
◎豆瓣评分 8.4/10 from 128,005 users
◎豆瓣链接 https://movie.douban.com/subject/1293530/
◎片  长 155分钟/171分钟(加长版)
◎导  演 Ridley Scott
◎主  演 Russell Crowe
      Joaquin Phoenix
      Connie Nielsen
      Richard Harris
      Djimon Hounsou
      Oliver Reed
      Derek Jacobi

◎简  介

  马克西·蒙斯(罗素·克劳 饰)是罗马帝国战功显赫,受人拥戴的大将军。老国王马库斯·奥利利乌斯(理查德·哈里斯 饰)对大将军赏识有加,有意加冕于他。老国王对将军这种超越亲情的宠爱自然招来太子康莫迪乌斯的妒忌与不安,太子伺机杀害父亲,抢先登上王位,并马上下令诛杀大将军一家。
  马克西蒙斯死里逃生躲过暴君的魔爪,可是他所有的家人都未能幸免于难,返回家园,他只看到满目疮痍的破败景象。走投无路的马克西蒙斯只能投身为奴,从昔日的大将军沦为一名角斗士,在血腥厮杀中苟且求生。
  凭借英勇的气魄和高超的武艺,马克西蒙斯渐渐脱颖而出,晋级到罗马的大角斗场。这一次,他的剑直指暴君康莫迪乌斯,失去亲人的痛苦,沦为奴隶的屈辱,在马克西蒙斯的内心燃起了熊熊怒火。
  • Video
  • ID                                       : 1
  • Format                                   : AVC
  • Format/Info                              : Advanced Video Codec
  • Format profile                           : High@L5.1
  • Format settings                          : CABAC / 5 Ref Frames
  • Format settings, CABAC                   : Yes
  • Format settings, RefFrames               : 5 frames
  • Codec ID                                 : V_MPEG4/ISO/AVC
  • Duration                                 : 2 h 50 min
  • Bit rate                                 : 31.9 Mb/s
  • Width                                    : 3 840 pixels
  • Height                                   : 1 600 pixels
  • Display aspect ratio                     : 2.40:1
  • Frame rate mode                          : Constant
  • Frame rate                               : 23.976 (24000/1001) FPS
  • Color space                              : YUV
  • Chroma subsampling                       : 4:2:0
  • Bit depth                                : 8 bits
  • Scan type                                : Progressive
  • Bits/(Pixel*Frame)                       : 0.216
  • Stream size                              : 38.1 GiB (88%)
  • Title                                    : Gladiator.2000.EXTENDED.2160p.BluRay.x264.8bit.SDR.DTS-X.7.1-SWTYBLZ
  • Writing library                          : x264 core 148 r2748 97eaef2
  • Encoding settings                        : cabac=1 / ref=5 / deblock=1:-1:-1 / analyse=0x3:0x113 / me=umh / subme=10 / psy=1 / psy_rd=1.00:0.15 / mixed_ref=1 / me_range=48 / chroma_me=1 / trellis=2 / 8x8dct=1 / cqm=0 / deadzone=21,11 / fast_pskip=1 / chroma_qp_offset=-3 / threads=36 / lookahead_threads=3 / sliced_threads=0 / nr=0 / decimate=0 / interlaced=0 / bluray_compat=0 / constrained_intra=0 / bframes=3 / b_pyramid=2 / b_adapt=2 / b_bias=0 / direct=3 / weightb=1 / open_gop=0 / weightp=2 / keyint=250 / keyint_min=23 / scenecut=40 / intra_refresh=0 / rc_lookahead=50 / rc=crf / mbtree=1 / crf=20.0 / qcomp=0.60 / qpmin=0 / qpmax=69 / qpstep=4 / ip_ratio=1.40 / aq=1:1.00
  • Default                                  : Yes
  • Forced                                   : No
  • Audio #1
  • ID                                       : 2
  • Format                                   : DTS
  • Format/Info                              : Digital Theater Systems
  • Format profile                           : X / MA / Core
  • Codec ID                                 : A_DTS
  • Duration                                 : 2 h 50 min
  • Bit rate mode                            : Variable / Variable / Constant
  • Bit rate                                 : 3 840 kb/s / 3 840 kb/s / 1 509 kb/s
  • Channel(s)                               : Object Based / 8 channels / 6 channels
  • Channel positions                        : Object Based / Front: L C R, Side: L R, Back: L R, LFE / Front: L C R, Side: L R, LFE
  • Sampling rate                            :  / 48.0 kHz / 48.0 kHz
  • Frame rate                               : 93.750 FPS (512 SPF)
  • Bit depth                                :  / 24 bits / 24 bits
  • Compression mode                         :  / Lossless / Lossy
  • Stream size                              : 4.56 GiB (10%)
  • Title                                    : Gladiator.2000.EXTENDED.2160p.BluRay.x264.8bit.SDR.DTS-X.7.1-SWTYBLZ
  • Language                                 : English
  • Default                                  : Yes
  • Forced                                   : No
  • Audio #2
  • ID                                       : 3
  • Format                                   : AC-3
  • Format/Info                              : Audio Coding 3
  • Codec ID                                 : A_AC3
  • Duration                                 : 2 h 50 min
  • Bit rate mode                            : Constant
  • Bit rate                                 : 640 kb/s
  • Channel(s)                               : 6 channels
  • Channel positions                        : Front: L C R, Side: L R, LFE
  • Sampling rate                            : 48.0 kHz
  • Frame rate                               : 31.250 FPS (1536 SPF)
  • Bit depth                                : 16 bits
  • Compression mode                         : Lossy
  • Stream size                              : 783 MiB (2%)
  • Title                                    : Gladiator.2000.EXTENDED.2160p.BluRay.x264.8bit.SDR.DTS-X.7.1-SWTYBLZ
  • Language                                 : English
  • Service kind                             : Complete Main
  • Default                                  : No
  • Forced                                   : No
  • Text #1
  • ID                                       : 4
  • Format                                   : UTF-8
  • Codec ID                                 : S_TEXT/UTF8
  • Codec ID/Info                            : UTF-8 Plain Text
  • Duration                                 : 2 h 40 min
  • Bit rate                                 : 34 b/s
  • Count of elements                        : 1364
  • Stream size                              : 40.9 KiB (0%)
  • Title                                    : English-SRT
  • Language                                 : English
  • Default                                  : Yes
  • Forced                                   : No
  • Text #2
  • ID                                       : 5
  • Format                                   : PGS
  • Muxing mode                              : zlib
  • Codec ID                                 : S_HDMV/PGS
  • Codec ID/Info                            : Picture based subtitle format used on BDs/HD-DVDs
  • Duration                                 : 2 h 42 min
  • Bit rate                                 : 24.0 kb/s
  • Count of elements                        : 2909
  • Stream size                              : 27.8 MiB (0%)
  • Title                                    : English-PGS
  • Language                                 : English
  • Default                                  : No
  • Forced                                   : No
  • Text #3
  • ID                                       : 6
  • Format                                   : PGS
  • Muxing mode                              : zlib
  • Codec ID                                 : S_HDMV/PGS
  • Codec ID/Info                            : Picture based subtitle format used on BDs/HD-DVDs
  • Duration                                 : 2 h 49 min
  • Bit rate                                 : 22.2 kb/s
  • Count of elements                        : 2707
  • Stream size                              : 26.9 MiB (0%)
  • Title                                    : French-PGS
  • Language                                 : French
  • Default                                  : No
  • Forced                                   : No
  • Text #4
  • ID                                       : 7
  • Format                                   : PGS
  • Muxing mode                              : zlib
  • Codec ID                                 : S_HDMV/PGS
  • Codec ID/Info                            : Picture based subtitle format used on BDs/HD-DVDs
  • Duration                                 : 2 h 49 min
  • Bit rate                                 : 19.7 kb/s
  • Count of elements                        : 2709
  • Stream size                              : 23.9 MiB (0%)
  • Title                                    : Dutch-PGS
  • Language                                 : Dutch
  • Default                                  : No
  • Forced                                   : No
  • Text #5
  • ID                                       : 8
  • Format                                   : PGS
  • Muxing mode                              : zlib
  • Codec ID                                 : S_HDMV/PGS
  • Codec ID/Info                            : Picture based subtitle format used on BDs/HD-DVDs
  • Duration                                 : 2 h 49 min
  • Bit rate                                 : 21.1 kb/s
  • Count of elements                        : 2707
  • Stream size                              : 25.7 MiB (0%)
  • Title                                    : Danish-PGS
  • Language                                 : Danish
  • Default                                  : No
  • Forced                                   : No
  • Text #6
  • ID                                       : 9
  • Format                                   : PGS
  • Muxing mode                              : zlib
  • Codec ID                                 : S_HDMV/PGS
  • Codec ID/Info                            : Picture based subtitle format used on BDs/HD-DVDs
  • Duration                                 : 2 h 49 min
  • Bit rate                                 : 20.8 kb/s
  • Count of elements                        : 2709
  • Stream size                              : 25.2 MiB (0%)
  • Title                                    : Finnish-PGS
  • Language                                 : Finnish
  • Default                                  : No
  • Forced                                   : No
  • Text #7
  • ID                                       : 10
  • Format                                   : PGS
  • Muxing mode                              : zlib
  • Codec ID                                 : S_HDMV/PGS
  • Codec ID/Info                            : Picture based subtitle format used on BDs/HD-DVDs
  • Duration                                 : 2 h 49 min
  • Bit rate                                 : 20.5 kb/s
  • Count of elements                        : 2711
  • Stream size                              : 24.9 MiB (0%)
  • Title                                    : Norwegian-PGS
  • Language                                 : Norwegian
  • Default                                  : No
  • Forced                                   : No
  • Text #8
  • ID                                       : 11
  • Format                                   : PGS
  • Muxing mode                              : zlib
  • Codec ID                                 : S_HDMV/PGS
  • Codec ID/Info                            : Picture based subtitle format used on BDs/HD-DVDs
  • Duration                                 : 2 h 49 min
  • Bit rate                                 : 20.7 kb/s
  • Count of elements                        : 2705
  • Stream size                              : 25.1 MiB (0%)
  • Title                                    : Swedish-PGS
  • Language                                 : Swedish
  • Default                                  : No
  • Forced                                   : No
  • Text #9
  • ID                                       : 12
  • Format                                   : PGS
  • Muxing mode                              : zlib
  • Codec ID                                 : S_HDMV/PGS
  • Codec ID/Info                            : Picture based subtitle format used on BDs/HD-DVDs
  • Duration                                 : 2 h 49 min
  • Bit rate                                 : 20.5 kb/s
  • Count of elements                        : 2707
  • Stream size                              : 24.9 MiB (0%)
  • Title                                    : Czech-PGS
  • Language                                 : Czech
  • Default                                  : No
  • Forced                                   : No
  • Text #10
  • ID                                       : 13
  • Format                                   : PGS
  • Muxing mode                              : zlib
  • Codec ID                                 : S_HDMV/PGS
  • Codec ID/Info                            : Picture based subtitle format used on BDs/HD-DVDs
  • Duration                                 : 2 h 49 min
  • Bit rate                                 : 23.7 kb/s
  • Count of elements                        : 2726
  • Stream size                              : 28.8 MiB (0%)
  • Title                                    : Greek-PGS
  • Language                                 : Greek
  • Default                                  : No
  • Forced                                   : No
  • Menu
  • 00:00:00.000                             : en:Chapter 1
  • 00:07:13.307                             : en:Chapter 2
  • 00:12:50.102                             : en:Chapter 3
  • 00:18:44.790                             : en:Chapter 4
  • 00:23:29.324                             : en:Chapter 5
  • 00:32:58.393                             : en:Chapter 6
  • 00:37:34.877                             : en:Chapter 7
  • 00:40:50.739                             : en:Chapter 8
  • 00:47:32.724                             : en:Chapter 9
  • 00:51:35.842                             : en:Chapter 10
  • 00:55:44.382                             : en:Chapter 11
  • 01:02:21.279                             : en:Chapter 12
  • 01:09:56.984                             : en:Chapter 13
  • 01:19:08.285                             : en:Chapter 14
  • 01:29:21.647                             : en:Chapter 15
  • 01:37:11.784                             : en:Chapter 16
  • 01:41:35.797                             : en:Chapter 17
  • 01:51:58.836                             : en:Chapter 18
  • 01:56:36.280                             : en:Chapter 19
  • 02:00:43.486                             : en:Chapter 20
  • 02:04:42.224                             : en:Chapter 21
  • 02:12:19.014                             : en:Chapter 22
  • 02:13:32.671                             : en:Chapter 23
  • 02:24:15.438                             : en:Chapter 24
  • 02:28:48.669                             : en:Chapter 25
  • 02:34:20.751                             : en:Chapter 26
  • 02:38:43.555                             : en:Chapter 27
  • 02:42:57.725                             : en:Chapter 28

复制代码
001908vtaxvraj7pp9pwkr.jpg 001908jzjl90df5mwidy0m.jpg 001909xkej8kkuugk87h7z.jpg 001909aafzgol87wh7fs8l.jpg 001910mk178z5g9iqx7x5m.jpg 001910hq1z2q01r01lz7ku.jpg





Gladiator.2000.EXTENDED.2160p.BluRay.x264.8bit.SDR.DTS-X.7.1-SWTYBLZ.torrent (109.58 KB, 下载次数: 82)

特别声明:本站所有资源均由网上收集而来,版权归原影音公司所有,如果侵犯了你的权益,请通知我们,我们会及时删除侵权内容.

免费下载本站所有资源---点这里
迅雷 应版权方要求,文件无法下载的解决办法---点这里
回复

使用道具 举报

签到天数: 67 天

[LV.6]常住居民II

发表于 2018-4-28 13:50:27 | 显示全部楼层
楼主加油,我们都看好你哦。
[发帖际遇]: 快乐阳光 发帖时在路边捡到 3 蓝光币,偷偷放进了口袋. 幸运榜 / 衰神榜
免费下载本站所有资源---点这里
迅雷 应版权方要求,文件无法下载的解决办法---点这里
回复 支持 1 反对 0

使用道具 举报

签到天数: 3 天

[LV.2]偶尔看看I

发表于 2018-4-28 12:06:45 | 显示全部楼层
强烈支持楼主ing……
免费下载本站所有资源---点这里
迅雷 应版权方要求,文件无法下载的解决办法---点这里
回复 支持 反对

使用道具 举报

签到天数: 10 天

[LV.3]偶尔看看II

发表于 2018-4-28 12:18:35 | 显示全部楼层
看到这帖子真是高兴!
免费下载本站所有资源---点这里
迅雷 应版权方要求,文件无法下载的解决办法---点这里
回复 支持 反对

使用道具 举报

签到天数: 144 天

[LV.7]常住居民III

发表于 2018-4-28 12:33:11 | 显示全部楼层
强烈支持楼主ing……
[发帖际遇]: 一个袋子砸在了 kenzhou77 头上,kenzhou77 赚了 1 蓝光币. 幸运榜 / 衰神榜
免费下载本站所有资源---点这里
迅雷 应版权方要求,文件无法下载的解决办法---点这里
回复 支持 反对

使用道具 举报

签到天数: 51 天

[LV.5]常住居民I

发表于 2018-4-28 12:42:41 | 显示全部楼层

强烈支持楼主ing……
免费下载本站所有资源---点这里
迅雷 应版权方要求,文件无法下载的解决办法---点这里
回复 支持 反对

使用道具 举报

签到天数: 39 天

[LV.5]常住居民I

发表于 2018-4-28 12:42:49 | 显示全部楼层
经典电影,43.58GB,够大的,谢谢
免费下载本站所有资源---点这里
迅雷 应版权方要求,文件无法下载的解决办法---点这里
回复 支持 反对

使用道具 举报

签到天数: 53 天

[LV.5]常住居民I

发表于 2018-4-28 13:00:45 | 显示全部楼层
感恩无私的分享与奉献
免费下载本站所有资源---点这里
迅雷 应版权方要求,文件无法下载的解决办法---点这里
回复 支持 反对

使用道具 举报

签到天数: 141 天

[LV.7]常住居民III

发表于 2018-4-28 13:25:19 | 显示全部楼层
谢谢发布好片,只是下载速度太慢了。
免费下载本站所有资源---点这里
迅雷 应版权方要求,文件无法下载的解决办法---点这里
回复 支持 反对

使用道具 举报

 成长值: 200

签到天数: 34 天

[LV.5]常住居民I

发表于 2018-4-28 13:50:25 | 显示全部楼层
谢谢楼主分享,哪里能购买蓝光币啊
免费下载本站所有资源---点这里
迅雷 应版权方要求,文件无法下载的解决办法---点这里
回复 支持 反对

使用道具 举报

点击按钮快速添加回复内容: 支持 高兴 激动 给力 加油 淡定 生气 回帖 路过 感动 感恩
您需要登录后才可以回帖 登录 | 立即加入

本版积分规则

现在加入蓝光电影网,注册一个账号

QQ| 手机版|小黑屋| 蓝光电影网 |

Copyright © 2001-2015 Comsenz Inc.  Template by 蓝光电影论坛 All Rights Reserved.

Powered by 高清电影网 X3.2
特别声明:本站所有资源均由网上收集而来,版权归原影音公司所有,如果侵犯了你的权益,请通知我们,我们会及时删除侵权内容.

快速回复 返回顶部 返回列表