找回密码

蓝光电影网

查看: 1175|回复: 67

角斗士/帝国骄雄 Gladiator.2000.EXTENDED.2160p.BluRay.REMUX.HEVC.DTS-X.7.1-FGT 69.03GB

  [复制链接]

 成长值: 16375

签到天数: 353 天

[LV.8]以坛为家I

发表于 2018-4-27 22:47:08 | 显示全部楼层 |阅读模式

马上注册,获取最新影视资讯,享用更多功能,让你轻松玩转蓝光电影网。

您需要 登录 才可以下载或查看,没有帐号?立即加入

x
215618nnzgl3myjklm4ml1.jpg
◎译  名 角斗士/帝国骄雄(港)
◎片  名 Gladiator
◎年  代 2000
◎产  地 英国/美国
◎类  别 剧情/动作/历史/冒险
◎语  言 英语
◎上映日期 2000-05-05
◎IMDb评分  8.5/10 from 1,126,924 users
◎IMDb链接  http://www.imdb.com/title/tt0172495/
◎豆瓣评分 8.4/10 from 128,002 users
◎豆瓣链接 https://movie.douban.com/subject/1293530/
◎片  长 155分钟/171分钟(加长版)
◎导  演 Ridley Scott
◎主  演 Russell Crowe
      Joaquin Phoenix
      Connie Nielsen
      Richard Harris
      Djimon Hounsou
      Oliver Reed
      Derek Jacobi

◎简  介

  马克西·蒙斯(罗素·克劳 饰)是罗马帝国战功显赫,受人拥戴的大将军。老国王马库斯·奥利利乌斯(理查德·哈里斯 饰)对大将军赏识有加,有意加冕于他。老国王对将军这种超越亲情的宠爱自然招来太子康莫迪乌斯的妒忌与不安,太子伺机杀害父亲,抢先登上王位,并马上下令诛杀大将军一家。
  马克西蒙斯死里逃生躲过暴君的魔爪,可是他所有的家人都未能幸免于难,返回家园,他只看到满目疮痍的破败景象。走投无路的马克西蒙斯只能投身为奴,从昔日的大将军沦为一名角斗士,在血腥厮杀中苟且求生。
  凭借英勇的气魄和高超的武艺,马克西蒙斯渐渐脱颖而出,晋级到罗马的大角斗场。这一次,他的剑直指暴君康莫迪乌斯,失去亲人的痛苦,沦为奴隶的屈辱,在马克西蒙斯的内心燃起了熊熊怒火。
  • Video #1
  • ID                                       : 1
  • Format                                   : HEVC
  • Format/Info                              : High Efficiency Video Coding
  • Format profile                           : Main 10@L5.1@High
  • Codec ID                                 : V_MPEGH/ISO/HEVC
  • Duration                                 : 2 h 50 min
  • Bit rate                                 : 43.3 Mb/s
  • Width                                    : 3 840 pixels
  • Height                                   : 2 160 pixels
  • Display aspect ratio                     : 16:9
  • Frame rate mode                          : Constant
  • Frame rate                               : 23.976 (23976/1000) FPS
  • Original frame rate                      : 23.976 (24000/1001) FPS
  • Color space                              : YUV
  • Chroma subsampling                       : 4:2:0 (Type 2)
  • Bit depth                                : 10 bits
  • Bits/(Pixel*Frame)                       : 0.218
  • Stream size                              : 51.7 GiB (75%)
  • Title                                    : Gladiator.2000.EXTENDED.2160p.BluRay.REMUX.HEVC.DTS-X.7.1-FGT
  • Default                                  : Yes
  • Forced                                   : No
  • Color range                              : Limited
  • Color primaries                          : BT.2020
  • Transfer characteristics                 : PQ
  • Matrix coefficients                      : BT.2020 non-constant
  • Mastering display color primaries        : Display P3
  • Mastering display luminance              : min: 0.0050 cd/m2, max: 1000 cd/m2
  • Maximum Content Light Level              : 1000 cd/m2
  • Maximum Frame-Average Light Level        : 497 cd/m2
  • Video #2
  • ID                                       : 2
  • Format                                   : HEVC
  • Format/Info                              : High Efficiency Video Coding
  • Format profile                           : Main 10@L5.1@High
  • Codec ID                                 : V_MPEGH/ISO/HEVC
  • Duration                                 : 2 h 50 min
  • Bit rate                                 : 6 825 kb/s
  • Width                                    : 1 920 pixels
  • Height                                   : 1 080 pixels
  • Display aspect ratio                     : 16:9
  • Frame rate mode                          : Constant
  • Frame rate                               : 23.976 (23976/1000) FPS
  • Color space                              : YUV
  • Chroma subsampling                       : 4:2:0 (Type 2)
  • Bit depth                                : 10 bits
  • Bits/(Pixel*Frame)                       : 0.137
  • Stream size                              : 8.15 GiB (12%)
  • Title                                    : Gladiator.2000.EXTENDED.2160p.BluRay.REMUX.HEVC.DTS-X.7.1-FGT
  • Default                                  : No
  • Forced                                   : No
  • Color range                              : Limited
  • Color primaries                          : BT.2020
  • Transfer characteristics                 : PQ
  • Matrix coefficients                      : BT.2020 non-constant
  • Mastering display color primaries        : Display P3
  • Mastering display luminance              : min: 0.0050 cd/m2, max: 1000 cd/m2
  • Audio #1
  • ID                                       : 3
  • Format                                   : DTS
  • Format/Info                              : Digital Theater Systems
  • Format profile                           : X / MA / Core
  • Codec ID                                 : A_DTS
  • Duration                                 : 2 h 50 min
  • Bit rate mode                            : Variable / Variable / Constant
  • Bit rate                                 : 3 840 kb/s / 3 840 kb/s / 1 509 kb/s
  • Channel(s)                               : Object Based / 8 channels / 6 channels
  • Channel positions                        : Object Based / Front: L C R, Side: L R, Back: L R, LFE / Front: L C R, Side: L R, LFE
  • Sampling rate                            :  / 48.0 kHz / 48.0 kHz
  • Frame rate                               : 93.750 FPS (512 SPF)
  • Bit depth                                :  / 24 bits / 24 bits
  • Compression mode                         :  / Lossless / Lossy
  • Stream size                              : 4.56 GiB (7%)
  • Title                                    : Gladiator.2000.EXTENDED.2160p.BluRay.REMUX.HEVC.DTS-X.7.1-FGT
  • Language                                 : English
  • Default                                  : Yes
  • Forced                                   : No
  • Audio #2
  • ID                                       : 4
  • Format                                   : DTS
  • Format/Info                              : Digital Theater Systems
  • Codec ID                                 : A_DTS
  • Duration                                 : 2 h 50 min
  • Bit rate mode                            : Constant
  • Bit rate                                 : 255 kb/s
  • Channel(s)                               : 2 channels
  • Channel positions                        : Front: L R
  • Sampling rate                            : 48.0 kHz
  • Frame rate                               : 93.750 FPS (512 SPF)
  • Bit depth                                : 24 bits
  • Compression mode                         : Lossy
  • Stream size                              : 312 MiB (0%)
  • Title                                    : Gladiator.2000.EXTENDED.2160p.BluRay.REMUX.HEVC.DTS-X.7.1-FGT
  • Language                                 : English
  • Default                                  : No
  • Forced                                   : No
  • Audio #3
  • ID                                       : 5
  • Format                                   : DTS
  • Format/Info                              : Digital Theater Systems
  • Codec ID                                 : A_DTS
  • Duration                                 : 2 h 50 min
  • Bit rate mode                            : Constant
  • Bit rate                                 : 768 kb/s
  • Channel(s)                               : 6 channels
  • Channel positions                        : Front: L C R, Side: L R, LFE
  • Sampling rate                            : 48.0 kHz
  • Frame rate                               : 93.750 FPS (512 SPF)
  • Bit depth                                : 24 bits
  • Compression mode                         : Lossy
  • Stream size                              : 939 MiB (1%)
  • Title                                    : Gladiator.2000.EXTENDED.2160p.BluRay.REMUX.HEVC.DTS-X.7.1-FGT
  • Language                                 : French
  • Default                                  : No
  • Forced                                   : No
  • Audio #4
  • ID                                       : 6
  • Format                                   : DTS
  • Format/Info                              : Digital Theater Systems
  • Codec ID                                 : A_DTS
  • Duration                                 : 2 h 50 min
  • Bit rate mode                            : Constant
  • Bit rate                                 : 768 kb/s
  • Channel(s)                               : 6 channels
  • Channel positions                        : Front: L C R, Side: L R, LFE
  • Sampling rate                            : 48.0 kHz
  • Frame rate                               : 93.750 FPS (512 SPF)
  • Bit depth                                : 24 bits
  • Compression mode                         : Lossy
  • Stream size                              : 939 MiB (1%)
  • Title                                    : Gladiator.2000.EXTENDED.2160p.BluRay.REMUX.HEVC.DTS-X.7.1-FGT
  • Language                                 : Russian
  • Default                                  : No
  • Forced                                   : No
  • Audio #5
  • ID                                       : 7
  • Format                                   : DTS
  • Format/Info                              : Digital Theater Systems
  • Codec ID                                 : A_DTS
  • Duration                                 : 2 h 50 min
  • Bit rate mode                            : Constant
  • Bit rate                                 : 768 kb/s
  • Channel(s)                               : 6 channels
  • Channel positions                        : Front: L C R, Side: L R, LFE
  • Sampling rate                            : 48.0 kHz
  • Frame rate                               : 93.750 FPS (512 SPF)
  • Bit depth                                : 24 bits
  • Compression mode                         : Lossy
  • Stream size                              : 939 MiB (1%)
  • Title                                    : Gladiator.2000.EXTENDED.2160p.BluRay.REMUX.HEVC.DTS-X.7.1-FGT
  • Language                                 : Russian
  • Default                                  : No
  • Forced                                   : No
  • Audio #6
  • ID                                       : 8
  • Format                                   : DTS
  • Format/Info                              : Digital Theater Systems
  • Codec ID                                 : A_DTS
  • Duration                                 : 2 h 50 min
  • Bit rate mode                            : Constant
  • Bit rate                                 : 768 kb/s
  • Channel(s)                               : 6 channels
  • Channel positions                        : Front: L C R, Side: L R, LFE
  • Sampling rate                            : 48.0 kHz
  • Frame rate                               : 93.750 FPS (512 SPF)
  • Bit depth                                : 24 bits
  • Compression mode                         : Lossy
  • Stream size                              : 939 MiB (1%)
  • Title                                    : Gladiator.2000.EXTENDED.2160p.BluRay.REMUX.HEVC.DTS-X.7.1-FGT
  • Language                                 : Czech
  • Default                                  : No
  • Forced                                   : No
  • Audio #7
  • ID                                       : 9
  • Format                                   : AC-3
  • Format/Info                              : Audio Coding 3
  • Codec ID                                 : A_AC3
  • Duration                                 : 2 h 50 min
  • Bit rate mode                            : Constant
  • Bit rate                                 : 192 kb/s
  • Channel(s)                               : 2 channels
  • Channel positions                        : Front: L R
  • Sampling rate                            : 48.0 kHz
  • Frame rate                               : 31.250 FPS (1536 SPF)
  • Bit depth                                : 16 bits
  • Compression mode                         : Lossy
  • Stream size                              : 235 MiB (0%)
  • Title                                    : Gladiator.2000.EXTENDED.2160p.BluRay.REMUX.HEVC.DTS-X.7.1-FGT
  • Language                                 : English
  • Service kind                             : Complete Main
  • Default                                  : No
  • Forced                                   : No
  • Audio #8
  • ID                                       : 10
  • Format                                   : AC-3
  • Format/Info                              : Audio Coding 3
  • Codec ID                                 : A_AC3
  • Duration                                 : 2 h 50 min
  • Bit rate mode                            : Constant
  • Bit rate                                 : 192 kb/s
  • Channel(s)                               : 2 channels
  • Channel positions                        : Front: L R
  • Sampling rate                            : 48.0 kHz
  • Frame rate                               : 31.250 FPS (1536 SPF)
  • Bit depth                                : 16 bits
  • Compression mode                         : Lossy
  • Stream size                              : 235 MiB (0%)
  • Title                                    : Gladiator.2000.EXTENDED.2160p.BluRay.REMUX.HEVC.DTS-X.7.1-FGT
  • Language                                 : English
  • Service kind                             : Complete Main
  • Default                                  : No
  • Forced                                   : No
  • Text #1
  • ID                                       : 11
  • Format                                   : PGS
  • Muxing mode                              : zlib
  • Codec ID                                 : S_HDMV/PGS
  • Codec ID/Info                            : Picture based subtitle format used on BDs/HD-DVDs
  • Duration                                 : 2 h 42 min
  • Bit rate                                 : 24.0 kb/s
  • Count of elements                        : 2909
  • Stream size                              : 27.8 MiB (0%)
  • Title                                    : English-PGS
  • Language                                 : English
  • Default                                  : Yes
  • Forced                                   : No
  • Text #2
  • ID                                       : 12
  • Format                                   : PGS
  • Muxing mode                              : zlib
  • Codec ID                                 : S_HDMV/PGS
  • Codec ID/Info                            : Picture based subtitle format used on BDs/HD-DVDs
  • Duration                                 : 2 h 49 min
  • Bit rate                                 : 22.2 kb/s
  • Count of elements                        : 2707
  • Stream size                              : 26.9 MiB (0%)
  • Title                                    : French-PGS
  • Language                                 : French
  • Default                                  : No
  • Forced                                   : No
  • Text #3
  • ID                                       : 13
  • Format                                   : PGS
  • Muxing mode                              : zlib
  • Codec ID                                 : S_HDMV/PGS
  • Codec ID/Info                            : Picture based subtitle format used on BDs/HD-DVDs
  • Duration                                 : 2 h 49 min
  • Bit rate                                 : 19.7 kb/s
  • Count of elements                        : 2709
  • Stream size                              : 23.9 MiB (0%)
  • Title                                    : Dutch-PGS
  • Language                                 : Dutch
  • Default                                  : No
  • Forced                                   : No
  • Text #4
  • ID                                       : 14
  • Format                                   : PGS
  • Muxing mode                              : zlib
  • Codec ID                                 : S_HDMV/PGS
  • Codec ID/Info                            : Picture based subtitle format used on BDs/HD-DVDs
  • Duration                                 : 2 h 49 min
  • Bit rate                                 : 21.1 kb/s
  • Count of elements                        : 2707
  • Stream size                              : 25.7 MiB (0%)
  • Title                                    : Danish-PGS
  • Language                                 : Danish
  • Default                                  : No
  • Forced                                   : No
  • Text #5
  • ID                                       : 15
  • Format                                   : PGS
  • Muxing mode                              : zlib
  • Codec ID                                 : S_HDMV/PGS
  • Codec ID/Info                            : Picture based subtitle format used on BDs/HD-DVDs
  • Duration                                 : 2 h 49 min
  • Bit rate                                 : 20.8 kb/s
  • Count of elements                        : 2709
  • Stream size                              : 25.2 MiB (0%)
  • Title                                    : Finnish-PGS
  • Language                                 : Finnish
  • Default                                  : No
  • Forced                                   : No
  • Text #6
  • ID                                       : 16
  • Format                                   : PGS
  • Muxing mode                              : zlib
  • Codec ID                                 : S_HDMV/PGS
  • Codec ID/Info                            : Picture based subtitle format used on BDs/HD-DVDs
  • Duration                                 : 2 h 49 min
  • Bit rate                                 : 20.5 kb/s
  • Count of elements                        : 2711
  • Stream size                              : 24.9 MiB (0%)
  • Title                                    : Norwegian-PGS
  • Language                                 : Norwegian
  • Default                                  : No
  • Forced                                   : No
  • Text #7
  • ID                                       : 17
  • Format                                   : PGS
  • Muxing mode                              : zlib
  • Codec ID                                 : S_HDMV/PGS
  • Codec ID/Info                            : Picture based subtitle format used on BDs/HD-DVDs
  • Duration                                 : 2 h 49 min
  • Bit rate                                 : 20.7 kb/s
  • Count of elements                        : 2705
  • Stream size                              : 25.1 MiB (0%)
  • Title                                    : Swedish-PGS
  • Language                                 : Swedish
  • Default                                  : No
  • Forced                                   : No
  • Text #8
  • ID                                       : 18
  • Format                                   : PGS
  • Muxing mode                              : zlib
  • Codec ID                                 : S_HDMV/PGS
  • Codec ID/Info                            : Picture based subtitle format used on BDs/HD-DVDs
  • Duration                                 : 2 h 49 min
  • Bit rate                                 : 20.5 kb/s
  • Count of elements                        : 2707
  • Stream size                              : 24.9 MiB (0%)
  • Title                                    : Czech-PGS
  • Language                                 : Czech
  • Default                                  : No
  • Forced                                   : No
  • Text #9
  • ID                                       : 19
  • Format                                   : PGS
  • Muxing mode                              : zlib
  • Codec ID                                 : S_HDMV/PGS
  • Codec ID/Info                            : Picture based subtitle format used on BDs/HD-DVDs
  • Duration                                 : 2 h 49 min
  • Bit rate                                 : 23.7 kb/s
  • Count of elements                        : 2726
  • Stream size                              : 28.8 MiB (0%)
  • Title                                    : Greek-PGS
  • Language                                 : Greek
  • Default                                  : No
  • Forced                                   : No
  • Text #10
  • ID                                       : 20
  • Format                                   : PGS
  • Muxing mode                              : zlib
  • Codec ID                                 : S_HDMV/PGS
  • Codec ID/Info                            : Picture based subtitle format used on BDs/HD-DVDs
  • Duration                                 : 2 h 44 min
  • Bit rate                                 : 65.4 kb/s
  • Count of elements                        : 4939
  • Stream size                              : 76.8 MiB (0%)
  • Title                                    : English-COMMENTARY-PGS
  • Language                                 : English
  • Default                                  : No
  • Forced                                   : No
  • Text #11
  • ID                                       : 21
  • Format                                   : PGS
  • Muxing mode                              : zlib
  • Codec ID                                 : S_HDMV/PGS
  • Codec ID/Info                            : Picture based subtitle format used on BDs/HD-DVDs
  • Duration                                 : 2 h 44 min
  • Bit rate                                 : 56.5 kb/s
  • Count of elements                        : 4943
  • Stream size                              : 66.3 MiB (0%)
  • Title                                    : French-FORCED-PGS
  • Language                                 : French
  • Default                                  : No
  • Forced                                   : No
  • Text #12
  • ID                                       : 22
  • Format                                   : PGS
  • Muxing mode                              : zlib
  • Codec ID                                 : S_HDMV/PGS
  • Codec ID/Info                            : Picture based subtitle format used on BDs/HD-DVDs
  • Duration                                 : 2 h 44 min
  • Bit rate                                 : 67.9 kb/s
  • Count of elements                        : 4939
  • Stream size                              : 79.6 MiB (0%)
  • Title                                    : Russian-FORCED-PGS
  • Language                                 : Russian
  • Default                                  : No
  • Forced                                   : No
  • Text #13
  • ID                                       : 23
  • Format                                   : PGS
  • Muxing mode                              : zlib
  • Codec ID                                 : S_HDMV/PGS
  • Codec ID/Info                            : Picture based subtitle format used on BDs/HD-DVDs
  • Duration                                 : 2 h 44 min
  • Bit rate                                 : 66.0 kb/s
  • Count of elements                        : 4947
  • Stream size                              : 77.4 MiB (0%)
  • Title                                    : Greek-COMMENTARY-PGS
  • Language                                 : Greek
  • Default                                  : No
  • Forced                                   : No
  • Menu
  • 00:00:00.000                             : en:Chapter 1
  • 00:07:13.307                             : en:Chapter 2
  • 00:12:50.102                             : en:Chapter 3
  • 00:18:44.790                             : en:Chapter 4
  • 00:23:29.324                             : en:Chapter 5
  • 00:32:58.393                             : en:Chapter 6
  • 00:37:34.877                             : en:Chapter 7
  • 00:40:50.739                             : en:Chapter 8
  • 00:47:32.724                             : en:Chapter 9
  • 00:51:35.842                             : en:Chapter 10
  • 00:55:44.382                             : en:Chapter 11
  • 01:02:21.279                             : en:Chapter 12
  • 01:09:56.984                             : en:Chapter 13
  • 01:19:08.285                             : en:Chapter 14
  • 01:29:21.647                             : en:Chapter 15
  • 01:37:11.784                             : en:Chapter 16
  • 01:41:35.797                             : en:Chapter 17
  • 01:51:58.836                             : en:Chapter 18
  • 01:56:36.280                             : en:Chapter 19
  • 02:00:43.486                             : en:Chapter 20
  • 02:04:42.224                             : en:Chapter 21
  • 02:12:19.014                             : en:Chapter 22
  • 02:13:32.671                             : en:Chapter 23
  • 02:24:15.438                             : en:Chapter 24
  • 02:28:48.669                             : en:Chapter 25
  • 02:34:20.751                             : en:Chapter 26
  • 02:38:43.555                             : en:Chapter 27
  • 02:42:57.725                             : en:Chapter 28

复制代码
215620d6x5354owx5s4os3.jpg 215621sjkvs6wfnbgbgs6u.jpg 215622zrz6q7srghvhvznr.jpg






Gladiator.2000.EXTENDED.2160p.BluRay.REMUX.HEVC.DTS-X.7.1-FGT.torrent (173.12 KB, 下载次数: 107)

特别声明:本站所有资源均由网上收集而来,版权归原影音公司所有,如果侵犯了你的权益,请通知我们,我们会及时删除侵权内容.

免费下载本站所有资源---点这里
迅雷 应版权方要求,文件无法下载的解决办法---点这里
回复

使用道具 举报

签到天数: 44 天

[LV.5]常住居民I

发表于 2018-4-27 23:26:13 | 显示全部楼层
好多年前的经典片子
免费下载本站所有资源---点这里
迅雷 应版权方要求,文件无法下载的解决办法---点这里
回复 支持 反对

使用道具 举报

签到天数: 61 天

[LV.6]常住居民II

发表于 2018-4-28 07:30:17 | 显示全部楼层
看到这帖子真是高兴!
免费下载本站所有资源---点这里
迅雷 应版权方要求,文件无法下载的解决办法---点这里
回复 支持 反对

使用道具 举报

签到天数: 157 天

[LV.7]常住居民III

发表于 2018-4-28 07:31:32 | 显示全部楼层
强烈支持楼主ing……愿经典永存~~~
[发帖际遇]: 一个袋子砸在了 tony13 头上,tony13 赚了 2 蓝光币. 幸运榜 / 衰神榜
免费下载本站所有资源---点这里
迅雷 应版权方要求,文件无法下载的解决办法---点这里
回复 支持 反对

使用道具 举报

签到天数: 52 天

[LV.5]常住居民I

发表于 2018-4-28 07:31:39 | 显示全部楼层
看到这帖子真是高兴!
免费下载本站所有资源---点这里
迅雷 应版权方要求,文件无法下载的解决办法---点这里
回复 支持 反对

使用道具 举报

签到天数: 119 天

[LV.6]常住居民II

发表于 2018-4-28 07:43:54 | 显示全部楼层
原来这部片子是两千年的?!一直以为是90年代甚至是80年代的,老片子没有商业气味,叙事感比现代片子好多了
[发帖际遇]: 王晓哈 乐于助人,奖励 1 蓝光币. 幸运榜 / 衰神榜
免费下载本站所有资源---点这里
迅雷 应版权方要求,文件无法下载的解决办法---点这里
回复 支持 反对

使用道具 举报

签到天数: 86 天

[LV.6]常住居民II

发表于 2018-4-28 08:27:26 | 显示全部楼层
强烈支持楼主ing……
[发帖际遇]: 竹筒饭 乐于助人,奖励 2 蓝光币. 幸运榜 / 衰神榜
免费下载本站所有资源---点这里
迅雷 应版权方要求,文件无法下载的解决办法---点这里
回复 支持 反对

使用道具 举报

签到天数: 123 天

[LV.7]常住居民III

发表于 2018-4-28 08:55:20 | 显示全部楼层
确实很经典,当时还是大学,年轻不会太会欣赏。。。。。。
[发帖际遇]: hakka_liu 乐于助人,奖励 2 蓝光币. 幸运榜 / 衰神榜
免费下载本站所有资源---点这里
迅雷 应版权方要求,文件无法下载的解决办法---点这里
回复 支持 反对

使用道具 举报

签到天数: 134 天

[LV.7]常住居民III

发表于 2018-4-28 08:56:58 | 显示全部楼层
强烈支持楼主ing……
[发帖际遇]: 快乐阳光 发帖时在路边捡到 3 蓝光币,偷偷放进了口袋. 幸运榜 / 衰神榜
免费下载本站所有资源---点这里
迅雷 应版权方要求,文件无法下载的解决办法---点这里
回复 支持 反对

使用道具 举报

签到天数: 25 天

[LV.4]偶尔看看III

发表于 2018-4-28 09:30:12 | 显示全部楼层
我只是路过打酱油的。
强烈支持楼主ing……
[发帖际遇]: 一个袋子砸在了 lhdwin 头上,lhdwin 赚了 3 蓝光币. 幸运榜 / 衰神榜
免费下载本站所有资源---点这里
迅雷 应版权方要求,文件无法下载的解决办法---点这里
回复 支持 反对

使用道具 举报

点击按钮快速添加回复内容: 支持 高兴 激动 给力 加油 淡定 生气 回帖 路过 感动 感恩
您需要登录后才可以回帖 登录 | 立即加入

本版积分规则

现在加入蓝光电影网,注册一个账号

QQ| 手机版|小黑屋| 蓝光电影网 |

Copyright © 2001-2015 Comsenz Inc.  Template by 蓝光电影论坛 All Rights Reserved.

Powered by 高清电影网 X3.2
特别声明:本站所有资源均由网上收集而来,版权归原影音公司所有,如果侵犯了你的权益,请通知我们,我们会及时删除侵权内容.

快速回复 返回顶部 返回列表