找回密码

蓝光电影网

查看: 1151|回复: 41

敌对分子/敌对者 Hostiles.2017.2160p.BluRay.x265.10bit.SDR.DTS-HD.MA.5.1-SWTYBLZ 29.41GB

[复制链接]

 成长值: 16375

签到天数: 353 天

[LV.8]以坛为家I

发表于 2018-4-27 09:47:02 | 显示全部楼层 |阅读模式

马上注册,获取最新影视资讯,享用更多功能,让你轻松玩转蓝光电影网。

您需要 登录 才可以下载或查看,没有帐号?立即加入

x
001014gx1sdorqwdxuimqx.jpg
◎译  名 敌对分子/敌对者
◎片  名 Hostiles
◎年  代 2017
◎产  地 美国
◎类  别 剧情/西部/冒险
◎语  言 英语/夏安语
◎上映日期 2017-09-02(特柳赖德电影节)/2018-01-26(美国)
◎IMDb评分  7.3/10 from 17,392 users
◎IMDb链接  http://www.imdb.com/title/tt5478478/
◎豆瓣评分 6.7/10 from 925 users
◎豆瓣链接 https://movie.douban.com/subject/26730826/
◎片  长 127分钟
◎导  演 斯科特·库珀 Scott Cooper
◎主  演 克里斯蒂安·贝尔 Christian Bale
      裴淳华 Rosamund Pike
      本·福斯特 Ben Foster
      史蒂芬·朗 Stephen Lang
      杰西·普莱蒙 Jesse Plemons
      保罗·安德森 Paul Anderson
      斯科特·威尔森 Scott Wilson
      考莉安卡·基尔彻 Q'orianka Kilcher
      乔纳森·梅杰斯 Jonathan Majors
      罗利·科奇瑞恩 Rory Cochrane
      彼得·穆兰 Peter Mullan
      亚当·比奇 Adam Beach
      韦斯·斯塔迪 Wes Studi
      蒂莫西·柴勒梅德 Timothée Chalamet
      比尔·坎普 Bill Camp

◎简  介

  背景设定在1892年,讲述在一场严峻的反抗暴乱之后,上尉Blocker勉强同意护送生命危在旦夕的夏延酋长及家人返回他们生活的部落。在这段从新墨西哥州前往蒙大拿州草地痛苦又冒险的旅程中,这对前竞争对手遇到了一个寡妇,她的家人们在平原之上被谋杀了。三方要共同合作克服艰难的地形继续上路,还要对抗科曼奇族的敌人以及邪恶凶猛的露宿者。
  • Video
  • ID                                       : 1
  • Format                                   : HEVC
  • Format/Info                              : High Efficiency Video Coding
  • Format profile                           : Main 10@L5.1@High
  • Codec ID                                 : V_MPEGH/ISO/HEVC
  • Duration                                 : 2 h 14 min
  • Bit rate                                 : 26.9 Mb/s
  • Width                                    : 3 840 pixels
  • Height                                   : 1 606 pixels
  • Display aspect ratio                     : 2.40:1
  • Frame rate mode                          : Constant
  • Frame rate                               : 23.976 (24000/1001) FPS
  • Color space                              : YUV
  • Chroma subsampling                       : 4:2:0
  • Bit depth                                : 10 bits
  • Bits/(Pixel*Frame)                       : 0.182
  • Stream size                              : 25.2 GiB (86%)
  • Title                                    : Hostiles.2017.2160p.BluRay.x265.10bit.SDR.DTS-HD.MA.5.1-SWTYBLZ
  • Writing library                          : x265 2.5+4-b4a5bcfe29c7:[Windows][GCC 4.9.3][64 bit] 10bit
  • Encoding settings                        : cpuid=1173503 / frame-threads=16 / numa-pools=24,24,24,24 / wpp / no-pmode / no-pme / no-psnr / no-ssim / log-level=2 / input-csp=1 / input-res=3840x1606 / interlace=0 / total-frames=0 / level-idc=51 / high-tier=1 / uhd-bd=0 / ref=3 / no-allow-non-conformance / repeat-headers / annexb / aud / hrd / info / hash=0 / no-temporal-layers / no-open-gop / min-keyint=1 / keyint=24 / bframes=4 / b-adapt=2 / b-pyramid / bframe-bias=0 / rc-lookahead=25 / lookahead-slices=4 / scenecut=40 / no-intra-refresh / ctu=64 / min-cu-size=8 / no-rect / no-amp / max-tu-size=32 / tu-inter-depth=1 / tu-intra-depth=1 / limit-tu=0 / rdoq-level=0 / dynamic-rd=0.00 / no-ssim-rd / signhide / no-tskip / nr-intra=0 / nr-inter=0 / no-constrained-intra / strong-intra-smoothing / max-merge=2 / limit-refs=3 / no-limit-modes / me=1 / subme=2 / merange=57 / temporal-mvp / weightp / no-weightb / no-analyze-src-pics / deblock=0:0 / no-sao / no-sao-non-deblock / rd=3 / no-early-skip / rskip / no-fast-intra / no-tskip-fast / no-cu-lossless / no-b-intra / rdpenalty=0 / psy-rd=2.00 / psy-rdoq=0.00 / no-rd-refine / analysis-reuse-mode=0 / no-lossless / cbqpoffs=0 / crqpoffs=0 / rc=crf / crf=18.0 / qcomp=0.60 / qpstep=4 / stats-write=0 / stats-read=0 / vbv-maxrate=160000 / vbv-bufsize=160000 / vbv-init=0.9 / crf-max=0.0 / crf-min=0.0 / ipratio=1.40 / pbratio=1.30 / aq-mode=1 / aq-strength=1.00 / cutree / zone-count=0 / no-strict-cbr / qg-size=32 / no-rc-grain / qpmax=69 / qpmin=0 / no-const-vbv / sar=1 / overscan=0 / videoformat=5 / range=0 / colorprim=2 / transfer=2 / colormatrix=2 / chromaloc=0 / display-window=0 / max-cll=0,0 / min-luma=0 / max-luma=1023 / log2-max-poc-lsb=8 / vui-timing-info / vui-hrd-info / slices=1 / opt-qp-pps / opt-ref-list-length-pps / no-multi-pass-opt-rps / scenecut-bias=0.05 / no-opt-cu-delta-qp / no-aq-motion / no-hdr / no-hdr-opt / no-dhdr10-opt / analysis-reuse-level=5 / scale-factor=0 / refine-intra=0 / refine-inter=0 / refine-mv=0 / no-limit-sao / ctu-info=0
  • Default                                  : Yes
  • Forced                                   : No
  • Audio #1
  • ID                                       : 2
  • Format                                   : DTS
  • Format/Info                              : Digital Theater Systems
  • Format profile                           : MA / Core
  • Codec ID                                 : A_DTS
  • Duration                                 : 2 h 14 min
  • Bit rate mode                            : Variable / Constant
  • Bit rate                                 : 3 582 kb/s / 1 509 kb/s
  • Channel(s)                               : 6 channels
  • Channel positions                        : Front: L C R, Side: L R, LFE
  • Sampling rate                            : 48.0 kHz
  • Frame rate                               : 93.750 FPS (512 SPF)
  • Bit depth                                : 24 bits
  • Compression mode                         : Lossless / Lossy
  • Stream size                              : 3.36 GiB (12%)
  • Title                                    : Hostiles.2017.2160p.BluRay.x265.10bit.SDR.DTS-HD.MA.5.1-SWTYBLZ
  • Language                                 : English
  • Default                                  : Yes
  • Forced                                   : No
  • Audio #2
  • ID                                       : 3
  • Format                                   : AC-3
  • Format/Info                              : Audio Coding 3
  • Codec ID                                 : A_AC3
  • Duration                                 : 2 h 14 min
  • Bit rate mode                            : Constant
  • Bit rate                                 : 640 kb/s
  • Channel(s)                               : 6 channels
  • Channel positions                        : Front: L C R, Side: L R, LFE
  • Sampling rate                            : 48.0 kHz
  • Frame rate                               : 31.250 FPS (1536 SPF)
  • Bit depth                                : 16 bits
  • Compression mode                         : Lossy
  • Stream size                              : 615 MiB (2%)
  • Title                                    : Hostiles.2017.2160p.BluRay.x265.10bit.SDR.DTS-HD.MA.5.1-SWTYBLZ
  • Language                                 : English
  • Service kind                             : Complete Main
  • Default                                  : No
  • Forced                                   : No
  • Text #1
  • ID                                       : 4
  • Format                                   : UTF-8
  • Codec ID                                 : S_TEXT/UTF8
  • Codec ID/Info                            : UTF-8 Plain Text
  • Duration                                 : 2 h 3 min
  • Bit rate                                 : 24 b/s
  • Count of elements                        : 752
  • Stream size                              : 22.4 KiB (0%)
  • Title                                    : English-SRT
  • Language                                 : English
  • Default                                  : Yes
  • Forced                                   : No
  • Text #2
  • ID                                       : 5
  • Format                                   : PGS
  • Muxing mode                              : zlib
  • Codec ID                                 : S_HDMV/PGS
  • Codec ID/Info                            : Picture based subtitle format used on BDs/HD-DVDs
  • Duration                                 : 2 h 13 min
  • Bit rate                                 : 18.9 kb/s
  • Count of elements                        : 1872
  • Stream size                              : 18.0 MiB (0%)
  • Title                                    : English-PGS
  • Language                                 : English
  • Default                                  : No
  • Forced                                   : No
  • Text #3
  • ID                                       : 6
  • Format                                   : PGS
  • Muxing mode                              : zlib
  • Codec ID                                 : S_HDMV/PGS
  • Codec ID/Info                            : Picture based subtitle format used on BDs/HD-DVDs
  • Duration                                 : 2 h 3 min
  • Bit rate                                 : 18.6 kb/s
  • Count of elements                        : 1814
  • Stream size                              : 16.5 MiB (0%)
  • Title                                    : Spanish-PGS
  • Language                                 : Spanish
  • Default                                  : No
  • Forced                                   : No
  • Menu
  • 00:00:00.000                             : en:Chapter 1
  • 00:08:18.539                             : en:Chapter 2
  • 00:20:32.064                             : en:Chapter 3
  • 00:25:28.818                             : en:Chapter 4
  • 00:34:48.336                             : en:Chapter 5
  • 00:40:23.546                             : en:Chapter 6
  • 00:51:40.597                             : en:Chapter 7
  • 01:00:18.615                             : en:Chapter 8
  • 01:08:17.176                             : en:Chapter 9
  • 01:14:52.070                             : en:Chapter 10
  • 01:25:29.249                             : en:Chapter 11
  • 01:34:35.461                             : en:Chapter 12
  • 01:43:05.512                             : en:Chapter 13
  • 01:50:45.972                             : en:Chapter 14
  • 01:54:10.677                             : en:Chapter 15
  • 02:05:21.805                             : en:Chapter 16

复制代码
001015xo1461n8b5l27l2o.jpg 001015yuoobbbe98q4ilzy.jpg 001016bhqkiaknuchokiqc.jpg 001016kkdxijjd5siydxfd.jpg 001016kjyo7v1jgvcmmlym.jpg 001017l4l8li84knlv8848.jpg






Hostiles.2017.2160p.BluRay.x265.10bit.SDR.DTS-HD.MA.5.1-SWTYBLZ.torrent (74.14 KB, 下载次数: 56)

特别声明:本站所有资源均由网上收集而来,版权归原影音公司所有,如果侵犯了你的权益,请通知我们,我们会及时删除侵权内容.

免费下载本站所有资源---点这里
迅雷 应版权方要求,文件无法下载的解决办法---点这里
回复

使用道具 举报

签到天数: 82 天

[LV.6]常住居民II

发表于 2018-4-27 11:21:40 | 显示全部楼层
强烈支持楼主ing……

点评

在叙述断续股份等十多个符合规定 恒大华府更好地  发表于 2018-4-30 13:49
免费下载本站所有资源---点这里
迅雷 应版权方要求,文件无法下载的解决办法---点这里
回复 支持 反对

使用道具 举报

签到天数: 28 天

[LV.4]偶尔看看III

发表于 2018-4-27 13:38:23 | 显示全部楼层

谢谢分享谢谢分享
免费下载本站所有资源---点这里
迅雷 应版权方要求,文件无法下载的解决办法---点这里
回复 支持 反对

使用道具 举报

签到天数: 1 天

[LV.1]初来乍到

发表于 2018-4-27 18:19:53 | 显示全部楼层
谢谢分享!楼主威武!
免费下载本站所有资源---点这里
迅雷 应版权方要求,文件无法下载的解决办法---点这里
回复 支持 反对

使用道具 举报

签到天数: 92 天

[LV.6]常住居民II

发表于 2018-4-27 20:05:51 | 显示全部楼层
强烈支持楼主ing……
[发帖际遇]: 一个袋子砸在了 5686363 头上,5686363 赚了 3 蓝光币. 幸运榜 / 衰神榜
免费下载本站所有资源---点这里
迅雷 应版权方要求,文件无法下载的解决办法---点这里
回复 支持 反对

使用道具 举报

签到天数: 14 天

[LV.3]偶尔看看II

发表于 2018-4-27 21:11:12 | 显示全部楼层
强烈支持楼主ing……
[发帖际遇]: 诺悦 发帖时在路边捡到 3 蓝光币,偷偷放进了口袋. 幸运榜 / 衰神榜
免费下载本站所有资源---点这里
迅雷 应版权方要求,文件无法下载的解决办法---点这里
回复 支持 反对

使用道具 举报

签到天数: 258 天

[LV.8]以坛为家I

发表于 2018-4-28 00:30:03 | 显示全部楼层
赞!谢谢楼主!
免费下载本站所有资源---点这里
迅雷 应版权方要求,文件无法下载的解决办法---点这里
回复 支持 反对

使用道具 举报

签到天数: 77 天

[LV.6]常住居民II

发表于 2018-4-28 05:35:21 | 显示全部楼层
强烈支持楼主ing……
免费下载本站所有资源---点这里
迅雷 应版权方要求,文件无法下载的解决办法---点这里
回复 支持 反对

使用道具 举报

签到天数: 86 天

[LV.6]常住居民II

发表于 2018-4-28 08:45:36 | 显示全部楼层
真是难得给力的帖子啊。
免费下载本站所有资源---点这里
迅雷 应版权方要求,文件无法下载的解决办法---点这里
回复 支持 反对

使用道具 举报

签到天数: 46 天

[LV.5]常住居民I

发表于 2018-4-28 11:44:54 | 显示全部楼层
非常精彩!!感谢分享!!!
免费下载本站所有资源---点这里
迅雷 应版权方要求,文件无法下载的解决办法---点这里
回复 支持 反对

使用道具 举报

点击按钮快速添加回复内容: 支持 高兴 激动 给力 加油 淡定 生气 回帖 路过 感动 感恩
您需要登录后才可以回帖 登录 | 立即加入

本版积分规则

现在加入蓝光电影网,注册一个账号

QQ| 手机版|小黑屋| 蓝光电影网 |

Copyright © 2001-2015 Comsenz Inc.  Template by 蓝光电影论坛 All Rights Reserved.

Powered by 高清电影网 X3.2
特别声明:本站所有资源均由网上收集而来,版权归原影音公司所有,如果侵犯了你的权益,请通知我们,我们会及时删除侵权内容.

快速回复 返回顶部 返回列表