找回密码

蓝光电影网

查看: 582|回复: 27

敌对分子/敌对者 Hostiles.2017.2160p.BluRay.x264.8bit.SDR.DTS-HD.MA.5.1-SWTYBLZ 29.77GB

[复制链接]

 成长值: 16375

签到天数: 353 天

[LV.8]以坛为家I

发表于 2018-4-26 22:26:37 | 显示全部楼层 |阅读模式

马上注册,获取最新影视资讯,享用更多功能,让你轻松玩转蓝光电影网。

您需要 登录 才可以下载或查看,没有帐号?立即加入

x
205315u2829op2np7j6p8j.jpg
◎译  名 敌对分子/敌对者
◎片  名 Hostiles
◎年  代 2017
◎产  地 美国
◎类  别 剧情/西部/冒险
◎语  言 英语/夏安语
◎上映日期 2017-09-02(特柳赖德电影节)/2018-01-26(美国)
◎IMDb评分  7.3/10 from 17,349 users
◎IMDb链接  http://www.imdb.com/title/tt5478478/
◎豆瓣评分 6.7/10 from 908 users
◎豆瓣链接 https://movie.douban.com/subject/26730826/
◎片  长 127分钟
◎导  演 斯科特·库珀 Scott Cooper
◎主  演 克里斯蒂安·贝尔 Christian Bale
      裴淳华 Rosamund Pike
      本·福斯特 Ben Foster
      史蒂芬·朗 Stephen Lang
      杰西·普莱蒙 Jesse Plemons
      保罗·安德森 Paul Anderson
      斯科特·威尔森 Scott Wilson
      考莉安卡·基尔彻 Q'orianka Kilcher
      乔纳森·梅杰斯 Jonathan Majors
      罗利·科奇瑞恩 Rory Cochrane
      彼得·穆兰 Peter Mullan
      亚当·比奇 Adam Beach
      韦斯·斯塔迪 Wes Studi
      蒂莫西·柴勒梅德 Timothée Chalamet
      比尔·坎普 Bill Camp

◎简  介

  背景设定在1892年,讲述在一场严峻的反抗暴乱之后,上尉Blocker勉强同意护送生命危在旦夕的夏延酋长及家人返回他们生活的部落。在这段从新墨西哥州前往蒙大拿州草地痛苦又冒险的旅程中,这对前竞争对手遇到了一个寡妇,她的家人们在平原之上被谋杀了。三方要共同合作克服艰难的地形继续上路,还要对抗科曼奇族的敌人以及邪恶凶猛的露宿者。
  • Video
  • ID                                       : 1
  • Format                                   : AVC
  • Format/Info                              : Advanced Video Codec
  • Format profile                           : High@L5.1
  • Format settings                          : CABAC / 5 Ref Frames
  • Format settings, CABAC                   : Yes
  • Format settings, RefFrames               : 5 frames
  • Codec ID                                 : V_MPEG4/ISO/AVC
  • Duration                                 : 2 h 14 min
  • Bit rate                                 : 27.2 Mb/s
  • Width                                    : 3 840 pixels
  • Height                                   : 1 606 pixels
  • Display aspect ratio                     : 2.40:1
  • Frame rate mode                          : Constant
  • Frame rate                               : 23.976 (24000/1001) FPS
  • Color space                              : YUV
  • Chroma subsampling                       : 4:2:0
  • Bit depth                                : 8 bits
  • Scan type                                : Progressive
  • Bits/(Pixel*Frame)                       : 0.184
  • Stream size                              : 25.5 GiB (87%)
  • Title                                    : Hostiles.2017.2160p.BluRay.x264.8bit.SDR.DTS-HD.MA.5.1-SWTYBLZ
  • Writing library                          : x264 core 148 r2748 97eaef2
  • Encoding settings                        : cabac=1 / ref=5 / deblock=1:-1:-1 / analyse=0x3:0x113 / me=umh / subme=10 / psy=1 / psy_rd=1.00:0.15 / mixed_ref=1 / me_range=48 / chroma_me=1 / trellis=2 / 8x8dct=1 / cqm=0 / deadzone=21,11 / fast_pskip=1 / chroma_qp_offset=-3 / threads=50 / lookahead_threads=4 / sliced_threads=0 / nr=0 / decimate=0 / interlaced=0 / bluray_compat=0 / constrained_intra=0 / bframes=3 / b_pyramid=2 / b_adapt=2 / b_bias=0 / direct=3 / weightb=1 / open_gop=0 / weightp=2 / keyint=250 / keyint_min=23 / scenecut=40 / intra_refresh=0 / rc_lookahead=50 / rc=crf / mbtree=1 / crf=20.0 / qcomp=0.60 / qpmin=0 / qpmax=69 / qpstep=4 / ip_ratio=1.40 / aq=1:1.00
  • Default                                  : Yes
  • Forced                                   : No
  • Audio #1
  • ID                                       : 2
  • Format                                   : DTS
  • Format/Info                              : Digital Theater Systems
  • Format profile                           : MA / Core
  • Codec ID                                 : A_DTS
  • Duration                                 : 2 h 14 min
  • Bit rate mode                            : Variable / Constant
  • Bit rate                                 : 3 582 kb/s / 1 509 kb/s
  • Channel(s)                               : 6 channels
  • Channel positions                        : Front: L C R, Side: L R, LFE
  • Sampling rate                            : 48.0 kHz
  • Frame rate                               : 93.750 FPS (512 SPF)
  • Bit depth                                : 24 bits
  • Compression mode                         : Lossless / Lossy
  • Stream size                              : 3.36 GiB (11%)
  • Title                                    : Hostiles.2017.2160p.BluRay.x264.8bit.SDR.DTS-HD.MA.5.1-SWTYBLZ
  • Language                                 : English
  • Default                                  : Yes
  • Forced                                   : No
  • Audio #2
  • ID                                       : 3
  • Format                                   : AC-3
  • Format/Info                              : Audio Coding 3
  • Codec ID                                 : A_AC3
  • Duration                                 : 2 h 14 min
  • Bit rate mode                            : Constant
  • Bit rate                                 : 640 kb/s
  • Channel(s)                               : 6 channels
  • Channel positions                        : Front: L C R, Side: L R, LFE
  • Sampling rate                            : 48.0 kHz
  • Frame rate                               : 31.250 FPS (1536 SPF)
  • Bit depth                                : 16 bits
  • Compression mode                         : Lossy
  • Stream size                              : 615 MiB (2%)
  • Title                                    : Hostiles.2017.2160p.BluRay.x264.8bit.SDR.DTS-HD.MA.5.1-SWTYBLZ
  • Language                                 : English
  • Service kind                             : Complete Main
  • Default                                  : No
  • Forced                                   : No
  • Text #1
  • ID                                       : 4
  • Format                                   : UTF-8
  • Codec ID                                 : S_TEXT/UTF8
  • Codec ID/Info                            : UTF-8 Plain Text
  • Duration                                 : 2 h 3 min
  • Bit rate                                 : 24 b/s
  • Count of elements                        : 752
  • Stream size                              : 22.4 KiB (0%)
  • Title                                    : English-SRT
  • Language                                 : English
  • Default                                  : Yes
  • Forced                                   : No
  • Text #2
  • ID                                       : 5
  • Format                                   : PGS
  • Muxing mode                              : zlib
  • Codec ID                                 : S_HDMV/PGS
  • Codec ID/Info                            : Picture based subtitle format used on BDs/HD-DVDs
  • Duration                                 : 2 h 13 min
  • Bit rate                                 : 18.9 kb/s
  • Count of elements                        : 1872
  • Stream size                              : 18.0 MiB (0%)
  • Title                                    : English-PGS
  • Language                                 : English
  • Default                                  : No
  • Forced                                   : No
  • Text #3
  • ID                                       : 6
  • Format                                   : PGS
  • Muxing mode                              : zlib
  • Codec ID                                 : S_HDMV/PGS
  • Codec ID/Info                            : Picture based subtitle format used on BDs/HD-DVDs
  • Duration                                 : 2 h 3 min
  • Bit rate                                 : 18.6 kb/s
  • Count of elements                        : 1814
  • Stream size                              : 16.5 MiB (0%)
  • Title                                    : Spanish-PGS
  • Language                                 : Spanish
  • Default                                  : No
  • Forced                                   : No
  • Menu
  • 00:00:00.000                             : en:Chapter 1
  • 00:08:18.539                             : en:Chapter 2
  • 00:20:32.064                             : en:Chapter 3
  • 00:25:28.818                             : en:Chapter 4
  • 00:34:48.336                             : en:Chapter 5
  • 00:40:23.546                             : en:Chapter 6
  • 00:51:40.597                             : en:Chapter 7
  • 01:00:18.615                             : en:Chapter 8
  • 01:08:17.176                             : en:Chapter 9
  • 01:14:52.070                             : en:Chapter 10
  • 01:25:29.249                             : en:Chapter 11
  • 01:34:35.461                             : en:Chapter 12
  • 01:43:05.512                             : en:Chapter 13
  • 01:50:45.972                             : en:Chapter 14
  • 01:54:10.677                             : en:Chapter 15
  • 02:05:21.805                             : en:Chapter 16

复制代码
205316umhmzmkuubu4jrn4.jpg 205317hhhkyh71uxjoomye.jpg 205317vbxj2sbxzeee33pj.jpg 205318kz6r6pztf66ue3pt.jpg 205318n0untptjpl9jul9l.jpg 205318hqh7mu6v6e765z5m.jpg







Hostiles.2017.2160p.BluRay.x264.8bit.SDR.DTS-HD.MA.5.1-SWTYBLZ.torrent (75.03 KB, 下载次数: 46)

特别声明:本站所有资源均由网上收集而来,版权归原影音公司所有,如果侵犯了你的权益,请通知我们,我们会及时删除侵权内容.

免费下载本站所有资源---点这里
迅雷 应版权方要求,文件无法下载的解决办法---点这里
回复

使用道具 举报

签到天数: 130 天

[LV.7]常住居民III

发表于 2018-4-27 06:19:01 | 显示全部楼层
强烈支持楼主ing……
[发帖际遇]: whtg2 乐于助人,奖励 1 蓝光币. 幸运榜 / 衰神榜
免费下载本站所有资源---点这里
迅雷 应版权方要求,文件无法下载的解决办法---点这里
回复 支持 反对

使用道具 举报

签到天数: 61 天

[LV.6]常住居民II

发表于 2018-4-27 07:29:40 | 显示全部楼层
感谢分享好片了
免费下载本站所有资源---点这里
迅雷 应版权方要求,文件无法下载的解决办法---点这里
回复 支持 反对

使用道具 举报

签到天数: 203 天

[LV.7]常住居民III

发表于 2018-4-27 07:37:45 | 显示全部楼层
看到这帖子真是高兴!
[发帖际遇]: 一个袋子砸在了 zyj257 头上,zyj257 赚了 3 蓝光币. 幸运榜 / 衰神榜
免费下载本站所有资源---点这里
迅雷 应版权方要求,文件无法下载的解决办法---点这里
回复 支持 反对

使用道具 举报

签到天数: 86 天

[LV.6]常住居民II

发表于 2018-4-27 08:21:04 | 显示全部楼层
真是难得给力的帖子啊。
免费下载本站所有资源---点这里
迅雷 应版权方要求,文件无法下载的解决办法---点这里
回复 支持 反对

使用道具 举报

签到天数: 25 天

[LV.4]偶尔看看III

发表于 2018-4-27 09:32:40 | 显示全部楼层
感恩无私的分享与奉献 真是被感动的痛哭流涕……
免费下载本站所有资源---点这里
迅雷 应版权方要求,文件无法下载的解决办法---点这里
回复 支持 反对

使用道具 举报

签到天数: 1 天

[LV.1]初来乍到

发表于 2018-4-27 11:39:53 | 显示全部楼层
淡定,淡定,淡定……
免费下载本站所有资源---点这里
迅雷 应版权方要求,文件无法下载的解决办法---点这里
回复 支持 反对

使用道具 举报

签到天数: 1 天

[LV.1]初来乍到

发表于 2018-4-27 15:35:14 | 显示全部楼层
准备下载看看
[发帖际遇]: JeffreyWang 乐于助人,奖励 1 蓝光币. 幸运榜 / 衰神榜
免费下载本站所有资源---点这里
迅雷 应版权方要求,文件无法下载的解决办法---点这里
回复 支持 反对

使用道具 举报

签到天数: 98 天

[LV.6]常住居民II

发表于 2018-4-27 21:41:54 | 显示全部楼层
强烈支持楼主ing……
免费下载本站所有资源---点这里
迅雷 应版权方要求,文件无法下载的解决办法---点这里
回复 支持 反对

使用道具 举报

签到天数: 46 天

[LV.5]常住居民I

发表于 2018-4-28 11:47:50 | 显示全部楼层
非常精彩!!感谢分享!!!
免费下载本站所有资源---点这里
迅雷 应版权方要求,文件无法下载的解决办法---点这里
回复 支持 反对

使用道具 举报

点击按钮快速添加回复内容: 支持 高兴 激动 给力 加油 淡定 生气 回帖 路过 感动 感恩
您需要登录后才可以回帖 登录 | 立即加入

本版积分规则

现在加入蓝光电影网,注册一个账号

QQ| 手机版|小黑屋| 蓝光电影网 |

Copyright © 2001-2015 Comsenz Inc.  Template by 蓝光电影论坛 All Rights Reserved.

Powered by 高清电影网 X3.2
特别声明:本站所有资源均由网上收集而来,版权归原影音公司所有,如果侵犯了你的权益,请通知我们,我们会及时删除侵权内容.

快速回复 返回顶部 返回列表